<?xml version="1.0" standalone="no"?>
<!DOCTYPE svg PUBLIC "-//W3C//DTD SVG 1.1//EN" "http://www.w3.org/Graphics/SVG/1.1/DTD/svg11.dtd" >
<svg xmlns="http://www.w3.org/2000/svg">
<metadata>
<json>
<![CDATA[
{
	"fontFamily": "Phosphor-Thin",
	"majorVersion": 2,
	"minorVersion": 0,
	"fontURL": "https://phosphoricons.com",
	"copyright": "2023",
	"designer": "Helena Zhang & Tobias Fried",
	"designerURL": "https://phosphoricons.com",
	"license": "MIT",
	"licenseURL": "https://github.com/phosphor-icons/homepage/blob/master/LICENSE",
	"version": "Version 2.0",
	"fontId": "Phosphor-Thin",
	"psName": "Phosphor-Thin",
	"subFamily": "Regular",
	"fullName": "Phosphor-Thin",
	"description": "Font generated by IcoMoon."
}
]]>
</json>
</metadata>
<defs>
<font id="Phosphor-Thin" horiz-adv-x="1024">
<font-face units-per-em="1024" ascent="960" descent="-64" />
<missing-glyph horiz-adv-x="1024" />
<glyph unicode="&#x20;" horiz-adv-x="512" d="" />
<glyph unicode="&#xe900;" glyph-name="address-book-thin" data-tags="address-book-thin" d="M618.8 389c41.77 25.705 69.2 71.174 69.2 123.049 0 79.529-64.471 144-144 144s-144-64.471-144-144c0-51.875 27.43-97.343 68.578-122.692l0.622-0.357c-53.336-16.551-97.836-48.562-129.529-90.745l-0.471-0.655c-1.998-2.641-3.2-5.98-3.2-9.6 0-8.837 7.163-16 16-16 5.217 0 9.85 2.496 12.771 6.36l0.029 0.040c41.3 54.65 106.169 89.6 179.2 89.6s137.9-34.95 178.792-89.037l0.408-0.563c2.95-3.904 7.583-6.4 12.8-6.4 8.837 0 16 7.163 16 16 0 3.62-1.202 6.959-3.229 9.64l0.029-0.040c-32.172 42.83-76.669 74.838-128.197 90.915l-1.803 0.485zM432 512c0 61.856 50.144 112 112 112s112-50.144 112-112c0-61.856-50.144-112-112-112v0c-61.856 0-112 50.144-112 112v0zM832 848h-576c-26.51 0-48-21.49-48-48v0-112h-80c-8.837 0-16-7.163-16-16s7.163-16 16-16v0h80v-192h-80c-8.837 0-16-7.163-16-16s7.163-16 16-16v0h80v-192h-80c-8.837 0-16-7.163-16-16s7.163-16 16-16v0h80v-112c0-26.51 21.49-48 48-48v0h576c26.51 0 48 21.49 48 48v0 704c0 26.51-21.49 48-48 48v0zM848 96c0-8.837-7.163-16-16-16v0h-576c-8.837 0-16 7.163-16 16v0 704c0 8.837 7.163 16 16 16v0h576c8.837 0 16-7.163 16-16v0z" />
<glyph unicode="&#xe901;" glyph-name="airplane-in-flight-thin" data-tags="airplane-in-flight-thin" d="M880 96c0-8.837-7.163-16-16-16v0h-576c-8.837 0-16 7.163-16 16s7.163 16 16 16v0h576c8.837 0 16-7.163 16-16v0zM976 416v-96c0-8.837-7.163-16-16-16v0h-715.76c-0.182-0.001-0.398-0.001-0.614-0.001-64.621 0-119.243 42.816-137.043 101.627l-0.264 1.014-56.24 187.56c-1.286 4.13-2.027 8.879-2.027 13.8 0 26.491 21.46 47.97 47.944 48h32.003c0.004 0 0.008 0 0.013 0 4.415 0 8.413-1.788 11.308-4.68v0l91.32-91.32h118.8l-42.92 128.84c-1.558 4.524-2.457 9.737-2.457 15.16 0 26.487 21.454 47.964 47.933 48h32.003c0.004 0 0.008 0 0.013 0 4.415 0 8.413-1.788 11.308-4.68v0l187.32-187.32h249.36c79.529 0 144-64.471 144-144v0zM944 416c0 61.856-50.144 112-112 112v0h-256c-0.004 0-0.008 0-0.013 0-4.415 0-8.413 1.788-11.308 4.68v0l-187.28 187.32h-25.4c-0.004 0-0.009 0-0.015 0-8.837 0-16-7.163-16-16 0-1.803 0.298-3.536 0.848-5.153l-0.033 0.113 50-149.92c0.516-1.504 0.815-3.237 0.815-5.040 0-8.828-7.149-15.985-15.973-16h-147.641c-4.405 0.008-8.392 1.795-11.28 4.68v0l-91.32 91.32h-25.4c-8.835-0.003-15.996-7.165-15.996-16 0-1.64 0.247-3.223 0.706-4.713l-0.030 0.113 56.28-187.6c14.050-46.513 56.52-79.801 106.765-79.801 0.181 0 0.362 0 0.543 0.001h699.732z" />
<glyph unicode="&#xe902;" glyph-name="airplane-landing-thin" data-tags="airplane-landing-thin" d="M976 96c0-8.837-7.163-16-16-16v0h-576c-8.837 0-16 7.163-16 16s7.163 16 16 16v0h576c8.837 0 16-7.163 16-16v0zM891.68 208.6l-706.52 197.8c-61.072 17.68-104.997 73.028-105.16 138.661v222.939c0.036 26.483 21.512 47.937 48 47.937 5.423 0 10.636-0.899 15.498-2.557l-0.338 0.1 21.92-7.28c4.655-1.598 8.271-5.149 9.924-9.649l0.036-0.111 45.24-125.16 147.72-42.12v138.84c0.013 26.5 21.498 47.977 48 47.977 5.423 0 10.636-0.899 15.498-2.557l-0.338 0.1 21.92-7.28c4.404-1.506 7.871-4.751 9.64-8.896l0.040-0.104 93-221.68 250.8-70.080c61.243-17.567 105.325-73.020 105.44-138.787v-142.693c-0.003-8.834-7.165-15.994-16-15.994-1.538 0-3.025 0.217-4.433 0.622l0.113-0.028zM880 366.68c-0.062 51.192-34.373 94.353-81.248 107.805l-0.792 0.195-258.28 72c-4.754 1.365-8.53 4.747-10.4 9.135l-0.040 0.105-93.24 222.2-15 5c-1.493 0.508-3.212 0.801-5 0.801-8.809 0-15.955-7.119-16-15.917v-160.004c0-0.005 0-0.011 0-0.017 0-8.837-7.163-16-16-16-1.567 0-3.082 0.225-4.513 0.645l0.113-0.028-176 50.16c-4.97 1.459-8.867 5.132-10.604 9.849l-0.036 0.111-45.36 125.56-14.56 4.84c-1.516 0.532-3.263 0.84-5.082 0.84-3.504 0-6.741-1.14-9.361-3.070l0.044 0.031c-4.027-2.93-6.621-7.62-6.64-12.917v-222.883c0.073-51.118 34.257-94.231 81.006-107.803l0.794-0.197 686.2-192z" />
<glyph unicode="&#xe903;" glyph-name="airplane-takeoff-thin" data-tags="airplane-takeoff-thin" d="M688 96c0-8.837-7.163-16-16-16v0h-576c-8.837 0-16 7.163-16 16s7.163 16 16 16v0h576c8.837 0 16-7.163 16-16v0zM975.72 590.36c-0.883-4.616-3.648-8.457-7.449-10.76l-0.071-0.040-589.64-352c-20.849-12.405-45.961-19.755-72.787-19.8h-0.013c-38.071 0.045-72.652 14.948-98.265 39.221l0.065-0.061-144.64 141.52c-9.199 8.762-14.919 21.103-14.919 34.78 0 19.518 11.65 36.316 28.375 43.818l0.304 0.122 12.28 6c2.041 1.013 4.444 1.606 6.986 1.606 1.793 0 3.517-0.295 5.126-0.839l-0.113 0.033 120-40.52 105.040 63.36-102.36 99.2c-9.623 8.809-15.636 21.426-15.636 35.448 0 19.67 11.832 36.577 28.767 43.992l0.309 0.12 0.64 0.24 28.6 10.84c1.664 0.641 3.588 1.012 5.6 1.012s3.936-0.371 5.71-1.049l-0.11 0.037 222.92-81.84 212.84 127.2c20.936 12.654 46.226 20.141 73.264 20.141 44.806 0 84.81-20.561 111.091-52.763l0.204-0.258 74.76-96c2.112-2.686 3.388-6.117 3.388-9.845 0-1.031-0.097-2.038-0.284-3.015l0.016 0.1zM936.24 597.76l-63.4 81.28c-20.586 25.087-51.592 40.967-86.308 40.967-21.010 0-40.662-5.816-57.433-15.927l0.501 0.28-219.28-130.92c-2.346-1.427-5.183-2.271-8.217-2.271-1.99 0-3.896 0.363-5.653 1.027l0.11-0.037-224.56 82.6-22.64-8.56c-5.557-2.589-9.34-8.127-9.34-14.548 0-4.735 2.057-8.989 5.325-11.919l0.015-0.013c0.138-0.158 0.282-0.302 0.435-0.435l0.005-0.005 117.4-113.96c2.988-2.91 4.842-6.972 4.842-11.468 0-5.778-3.062-10.84-7.652-13.653l-0.070-0.040-128.88-77.92c-2.364-1.455-5.228-2.317-8.293-2.317-1.828 0-3.584 0.306-5.219 0.871l0.112-0.034-120.92 40.8-7.4-3.64c-5.743-2.514-9.683-8.147-9.683-14.7 0-4.593 1.935-8.734 5.035-11.652l0.008-0.008 144.6-141.56c19.866-18.722 46.713-30.227 76.247-30.227 20.792 0 40.253 5.702 56.903 15.629l-0.51-0.282z" />
<glyph unicode="&#xe904;" glyph-name="airplane-thin" data-tags="airplane-thin" d="M935.16 430.32l-311.16 155.56v182.12c0 61.856-50.144 112-112 112s-112-50.144-112-112v0-182.12l-311.16-155.56c-5.283-2.686-8.84-8.082-8.84-14.309 0-0.004 0-0.008 0-0.012v0.001-128c0.007-8.831 7.168-15.987 16-15.987 1.104 0 2.182 0.112 3.223 0.325l-0.103-0.018 300.88 60v-101.84l-59.32-59.16c-2.892-2.895-4.68-6.892-4.68-11.307 0-0.004 0-0.009 0-0.013v0.001-128c0.005-8.833 7.166-15.991 16-15.991 2.147 0 4.196 0.423 6.067 1.19l-0.107-0.039 154.040 61.6 154.040-61.6c1.738-0.734 3.759-1.16 5.88-1.16 0.028 0 0.056 0 0.084 0h-0.004c0.015 0 0.033 0 0.050 0 3.329 0 6.417 1.032 8.962 2.794l-0.052-0.034c4.268 2.914 7.034 7.753 7.040 13.239v128.001c0 0.004 0 0.008 0 0.013 0 4.415-1.788 8.413-4.68 11.308v0l-59.32 59.32v101.84l300.88-60c0.938-0.195 2.017-0.307 3.121-0.307 8.776 0 15.901 7.065 15.999 15.818v128.009c0 0.003 0 0.007 0 0.011 0 6.226-3.557 11.622-8.749 14.267l-0.091 0.042zM912 307.52l-300.88 60c-0.938 0.195-2.017 0.307-3.121 0.307-8.776 0-15.901-7.065-15.999-15.818v-128.009c0-0.004 0-0.008 0-0.013 0-4.415 1.788-8.413 4.68-11.308v0l59.32-59.32v-97.72l-138.040 55.2c-1.775 0.739-3.838 1.168-6 1.168s-4.225-0.429-6.106-1.206l0.106 0.039-137.96-55.2v97.72l59.32 59.32c2.892 2.895 4.68 6.892 4.68 11.307 0 0.004 0 0.009 0 0.013v-0.001 128c-0.007 8.831-7.168 15.987-16 15.987-1.104 0-2.182-0.112-3.223-0.325l0.103 0.018-300.88-60.16v98.6l311.16 155.56c5.283 2.686 8.84 8.082 8.84 14.309 0 0.004 0 0.008 0 0.012v-0.001 192c0 44.183 35.817 80 80 80s80-35.817 80-80v0-192c0-0.003 0-0.007 0-0.011 0-6.226 3.557-11.622 8.749-14.267l0.091-0.042 311.16-155.56z" />
<glyph unicode="&#xe905;" glyph-name="airplane-tilt-thin" data-tags="airplane-tilt-thin" d="M722.68 507.6l124.56 117.24c20.269 20.269 32.806 48.27 32.806 79.2 0 61.859-50.147 112.006-112.006 112.006-30.93 0-58.931-12.537-79.2-32.806v0l-0.32-0.36-116.92-124.2-342.12 124.4c-1.631 0.614-3.516 0.969-5.484 0.969-4.42 0-8.421-1.792-11.316-4.689l-96-96c-2.9-2.896-4.694-6.899-4.694-11.321 0-5.533 2.808-10.409 7.077-13.283l0.057-0.036 272-181.16-77.72-77.56h-89.4c-4.425-0.008-8.428-1.811-11.319-4.719l-96.001-96.001c-2.893-2.895-4.683-6.894-4.683-11.31 0-6.69 4.106-12.422 9.936-14.811l0.107-0.039 153.68-61.44 61.36-153.48v-0.36c2.468-5.848 8.155-9.877 14.782-9.877 4.551 0 8.659 1.9 11.572 4.951l95.726 95.726c2.963 2.886 4.81 6.904 4.84 11.354v89.406l77.52 77.52 181.16-271.8c2.91-4.326 7.786-7.134 13.319-7.134 4.422 0 8.425 1.794 11.321 4.694v0l96 96c2.897 2.896 4.689 6.897 4.689 11.316 0 1.968-0.355 3.853-1.005 5.594l0.036-0.111zM738.68 89.12l-181.16 271.76c-2.645 3.964-6.927 6.658-11.857 7.115l-0.063 0.005h-1.56c-4.425-0.008-8.428-1.811-11.319-4.719l-96.001-96.001c-2.9-2.883-4.701-6.869-4.72-11.276v-89.364l-74.12-74.16-55 137.48c-1.662 4.082-4.838 7.258-8.813 8.881l-0.107 0.039-137.48 55 74.16 74.12h89.36c0.004 0 0.008 0 0.013 0 4.415 0 8.413 1.788 11.308 4.68v0l96 96c2.9 2.896 4.694 6.899 4.694 11.321 0 5.533-2.808 10.409-7.077 13.283l-0.057 0.036-271.76 181.2 74.88 75 342.44-124.52c1.641-0.622 3.537-0.982 5.518-0.982 4.563 0 8.68 1.91 11.595 4.975l0.006 0.007 124 131.72c14.484 14.504 34.504 23.476 56.62 23.476 44.192 0 80.016-35.824 80.016-80.016 0-22.076-8.94-42.064-23.397-56.541l0.001 0.001-131.72-124c-3.071-2.921-4.982-7.038-4.982-11.602 0-1.981 0.36-3.878 1.018-5.629l-0.036 0.11 124.44-342.52z" />
<glyph unicode="&#xe906;" glyph-name="airplay-thin" data-tags="airplay-thin" d="M524 330.4c-2.952 3.424-7.294 5.578-12.14 5.578s-9.188-2.154-12.123-5.557l-0.017-0.021-192-224c-2.388-2.779-3.842-6.42-3.842-10.401 0-8.781 7.074-15.91 15.833-15.999h384.008c8.768 0.090 15.842 7.218 15.842 15.999 0 3.981-1.454 7.622-3.86 10.422l0.018-0.021zM354.8 112l157.2 183.4 157.2-183.4zM912 704v-448c0-44.183-35.817-80-80-80v0h-64c-8.837 0-16 7.163-16 16s7.163 16 16 16v0h64c26.51 0 48 21.49 48 48v0 448c0 26.51-21.49 48-48 48v0h-640c-26.51 0-48-21.49-48-48v0-448c0-26.51 21.49-48 48-48v0h64c8.837 0 16-7.163 16-16s-7.163-16-16-16v0h-64c-44.183 0-80 35.817-80 80v0 448c0 44.183 35.817 80 80 80v0h640c44.183 0 80-35.817 80-80v0z" />
<glyph unicode="&#xe907;" glyph-name="air-traffic-control-thin" data-tags="air-traffic-control-thin" d="M903.32 699.56c-8.795 12.426-23.111 20.44-39.299 20.44-0.007 0-0.014 0-0.022 0h-335.999v160h80c8.837 0 16 7.163 16 16s-7.163 16-16 16v0h-192c-8.837 0-16-7.163-16-16s7.163-16 16-16v0h80v-160h-336c-0.003 0-0.006 0-0.009 0-26.51 0-48-21.49-48-48 0-5.885 1.059-11.522 2.997-16.732l-0.108 0.332 104.76-288c6.896-18.582 24.468-31.586 45.078-31.6h135.282v-272c0-8.837 7.163-16 16-16s16 7.163 16 16v0 272h160v-272c0-8.837 7.163-16 16-16s16 7.163 16 16v0 272h135.28c20.612 0.014 38.184 13.018 44.972 31.268l0.108 0.332 104.76 288c1.832 4.881 2.893 10.522 2.893 16.411 0 10.317-3.255 19.873-8.793 27.699l0.101-0.15zM429.36 368l-58.2 320h281.68l-58.2-320zM249.68 378.52l-104.72 288c-0.613 1.63-0.968 3.513-0.968 5.48 0 8.837 7.163 16 16 16 0.003 0 0.005 0 0.008 0h178.64l58.16-320h-132c-0.026 0-0.057 0-0.088 0-6.87 0-12.729 4.33-14.996 10.41l-0.036 0.111zM879.040 666.52l-104.72-288c-2.304-6.19-8.162-10.52-15.032-10.52-0.003 0-0.005 0-0.008 0h-132l58.2 320h178.52c0.002 0 0.005 0 0.008 0 8.837 0 16-7.163 16-16 0-1.967-0.355-3.85-1.004-5.591l0.036 0.111z" />
<glyph unicode="&#xe908;" glyph-name="alarm-thin" data-tags="alarm-thin" d="M512 816c-203.241 0-368-164.759-368-368s164.759-368 368-368c203.241 0 368 164.759 368 368v0c-0.228 203.149-164.851 367.772-367.978 368h-0.022zM512 112c-185.568 0-336 150.432-336 336s150.432 336 336 336c185.568 0 336-150.432 336-336v0c-0.205-185.485-150.515-335.795-335.98-336h-0.020zM235.32 852.68l-128-128c-2.897-2.897-6.899-4.689-11.32-4.689-8.841 0-16.009 7.167-16.009 16.009 0 4.421 1.792 8.423 4.689 11.32v0l128 128c2.897 2.897 6.899 4.689 11.32 4.689 8.841 0 16.009-7.167 16.009-16.009 0-4.421-1.792-8.423-4.689-11.32v0zM939.32 724.68c-2.896-2.899-6.899-4.693-11.32-4.693s-8.424 1.793-11.32 4.692v0l-128 128c-2.897 2.897-4.689 6.899-4.689 11.32 0 8.841 7.167 16.009 16.009 16.009 4.421 0 8.423-1.792 11.32-4.689v0l128-128c2.899-2.896 4.693-6.899 4.693-11.32s-1.793-8.424-4.692-11.32v0zM752 448c0-8.837-7.163-16-16-16v0h-224c-8.837 0-16 7.163-16 16v0 224c0 8.837 7.163 16 16 16s16-7.163 16-16v0-208h208c8.837 0 16-7.163 16-16v0z" />
<glyph unicode="&#xe909;" glyph-name="alien-thin" data-tags="alien-thin" d="M512 880c-203.149-0.228-367.772-164.851-368-367.978v-0.022c0-92.76 49.040-213.32 131.2-322.52 63.12-83.88 158.44-173.48 236.8-173.48s173.68 89.6 236.8 173.48c82.16 109.2 131.2 229.76 131.2 322.52-0.228 203.149-164.851 367.772-367.978 368h-0.022zM723.2 208.72c-73.44-97.64-156.36-160.72-211.2-160.72s-137.76 63.080-211.2 160.72c-76.8 102.32-124.8 218.52-124.8 303.28 0 185.568 150.432 336 336 336s336-150.432 336-336v0c0-84.76-47.8-200.96-124.8-303.28zM464 416c0 79.529-64.471 144-144 144v0c-26.51 0-48-21.49-48-48v0c0-79.529 64.471-144 144-144v0c26.51 0 48 21.49 48 48v0zM416 400c-61.856 0-112 50.144-112 112v0c0 8.837 7.163 16 16 16v0c61.856 0 112-50.144 112-112v0c0-8.837-7.163-16-16-16v0zM704 560c-79.529 0-144-64.471-144-144v0c0-26.51 21.49-48 48-48v0c79.529 0 144 64.471 144 144v0c0 26.51-21.49 48-48 48v0zM608 400c-8.837 0-16 7.163-16 16v0c0 61.856 50.144 112 112 112v0c8.837 0 16-7.163 16-16v0c0-61.856-50.144-112-112-112v0zM592 224c0-8.837-7.163-16-16-16v0h-128c-8.837 0-16 7.163-16 16s7.163 16 16 16v0h128c8.837 0 16-7.163 16-16v0z" />
<glyph unicode="&#xe90a;" glyph-name="align-bottom-simple-thin" data-tags="align-bottom-simple-thin" d="M816 32c0-8.837-7.163-16-16-16v0h-576c-8.837 0-16 7.163-16 16s7.163 16 16 16v0h576c8.837 0 16-7.163 16-16v0zM336 192v608c0 26.51 21.49 48 48 48v0h256c26.51 0 48-21.49 48-48v0-608c0-26.51-21.49-48-48-48v0h-256c-26.51 0-48 21.49-48 48v0zM368 192c0-8.837 7.163-16 16-16v0h256c8.837 0 16 7.163 16 16v0 608c0 8.837-7.163 16-16 16v0h-256c-8.837 0-16-7.163-16-16v0z" />
<glyph unicode="&#xe90b;" glyph-name="align-bottom-thin" data-tags="align-bottom-thin" d="M880 96c0-8.837-7.163-16-16-16v0h-704c-8.837 0-16 7.163-16 16s7.163 16 16 16v0h704c8.837 0 16-7.163 16-16v0zM560 256v384c0 26.51 21.49 48 48 48v0h160c26.51 0 48-21.49 48-48v0-384c0-26.51-21.49-48-48-48v0h-160c-26.51 0-48 21.49-48 48v0zM592 256c0-8.837 7.163-16 16-16v0h160c8.837 0 16 7.163 16 16v0 384c0 8.837-7.163 16-16 16v0h-160c-8.837 0-16-7.163-16-16v0zM208 256v544c0 26.51 21.49 48 48 48v0h160c26.51 0 48-21.49 48-48v0-544c0-26.51-21.49-48-48-48v0h-160c-26.51 0-48 21.49-48 48v0zM240 256c0-8.837 7.163-16 16-16v0h160c8.837 0 16 7.163 16 16v0 544c0 8.837-7.163 16-16 16v0h-160c-8.837 0-16-7.163-16-16v0z" />
<glyph unicode="&#xe90c;" glyph-name="align-center-horizontal-simple-thin" data-tags="align-center-horizontal-simple-thin" d="M832 624h-304v144c0 8.837-7.163 16-16 16s-16-7.163-16-16v0-144h-304c-26.51 0-48-21.49-48-48v0-256c0-26.51 21.49-48 48-48v0h304v-144c0-8.837 7.163-16 16-16s16 7.163 16 16v0 144h304c26.51 0 48 21.49 48 48v0 256c0 26.51-21.49 48-48 48v0zM848 320c0-8.837-7.163-16-16-16v0h-640c-8.837 0-16 7.163-16 16v0 256c0 8.837 7.163 16 16 16v0h640c8.837 0 16-7.163 16-16v0z" />
<glyph unicode="&#xe90d;" glyph-name="align-center-horizontal-thin" data-tags="align-center-horizontal-thin" d="M832 400h-304v96h208c26.51 0 48 21.49 48 48v0 160c0 26.51-21.49 48-48 48v0h-208v80c0 8.837-7.163 16-16 16s-16-7.163-16-16v0-80h-208c-26.51 0-48-21.49-48-48v0-160c0-26.51 21.49-48 48-48v0h208v-96h-304c-26.51 0-48-21.49-48-48v0-160c0-26.51 21.49-48 48-48v0h304v-80c0-8.837 7.163-16 16-16s16 7.163 16 16v0 80h304c26.51 0 48 21.49 48 48v0 160c0 26.51-21.49 48-48 48v0zM272 544v160c0 8.837 7.163 16 16 16v0h448c8.837 0 16-7.163 16-16v0-160c0-8.837-7.163-16-16-16v0h-448c-8.837 0-16 7.163-16 16v0zM848 192c0-8.837-7.163-16-16-16v0h-640c-8.837 0-16 7.163-16 16v0 160c0 8.837 7.163 16 16 16v0h640c8.837 0 16-7.163 16-16v0z" />
<glyph unicode="&#xe90e;" glyph-name="align-center-vertical-simple-thin" data-tags="align-center-vertical-simple-thin" d="M832 464h-144v304c0 26.51-21.49 48-48 48v0h-256c-26.51 0-48-21.49-48-48v0-304h-144c-8.837 0-16-7.163-16-16s7.163-16 16-16v0h144v-304c0-26.51 21.49-48 48-48v0h256c26.51 0 48 21.49 48 48v0 304h144c8.837 0 16 7.163 16 16s-7.163 16-16 16v0zM656 128c0-8.837-7.163-16-16-16v0h-256c-8.837 0-16 7.163-16 16v0 640c0 8.837 7.163 16 16 16v0h256c8.837 0 16-7.163 16-16v0z" />
<glyph unicode="&#xe90f;" glyph-name="align-center-vertical-thin" data-tags="align-center-vertical-thin" d="M896 464h-80v208c0 26.51-21.49 48-48 48v0h-160c-26.51 0-48-21.49-48-48v0-208h-96v304c0 26.51-21.49 48-48 48v0h-160c-26.51 0-48-21.49-48-48v0-304h-80c-8.837 0-16-7.163-16-16s7.163-16 16-16v0h80v-304c0-26.51 21.49-48 48-48v0h160c26.51 0 48 21.49 48 48v0 304h96v-208c0-26.51 21.49-48 48-48v0h160c26.51 0 48 21.49 48 48v0 208h80c8.837 0 16 7.163 16 16s-7.163 16-16 16v0zM432 128c0-8.837-7.163-16-16-16v0h-160c-8.837 0-16 7.163-16 16v0 640c0 8.837 7.163 16 16 16v0h160c8.837 0 16-7.163 16-16v0zM784 224c0-8.837-7.163-16-16-16v0h-160c-8.837 0-16 7.163-16 16v0 448c0 8.837 7.163 16 16 16v0h160c8.837 0 16-7.163 16-16v0z" />
<glyph unicode="&#xe910;" glyph-name="align-left-simple-thin" data-tags="align-left-simple-thin" d="M144 736v-576c0-8.837-7.163-16-16-16s-16 7.163-16 16v0 576c0 8.837 7.163 16 16 16s16-7.163 16-16v0zM944 576v-256c0-26.51-21.49-48-48-48v0h-608c-26.51 0-48 21.49-48 48v0 256c0 26.51 21.49 48 48 48v0h608c26.51 0 48-21.49 48-48v0zM912 576c0 8.837-7.163 16-16 16v0h-608c-8.837 0-16-7.163-16-16v0-256c0-8.837 7.163-16 16-16v0h608c8.837 0 16 7.163 16 16v0z" />
<glyph unicode="&#xe911;" glyph-name="align-left-thin" data-tags="align-left-thin" d="M176 800v-704c0-8.837-7.163-16-16-16s-16 7.163-16 16v0 704c0 8.837 7.163 16 16 16s16-7.163 16-16v0zM272 544v160c0 26.51 21.49 48 48 48v0h384c26.51 0 48-21.49 48-48v0-160c0-26.51-21.49-48-48-48v0h-384c-26.51 0-48 21.49-48 48v0zM304 544c0-8.837 7.163-16 16-16v0h384c8.837 0 16 7.163 16 16v0 160c0 8.837-7.163 16-16 16v0h-384c-8.837 0-16-7.163-16-16v0zM912 352v-160c0-26.51-21.49-48-48-48v0h-544c-26.51 0-48 21.49-48 48v0 160c0 26.51 21.49 48 48 48v0h544c26.51 0 48-21.49 48-48v0zM880 352c0 8.837-7.163 16-16 16v0h-544c-8.837 0-16-7.163-16-16v0-160c0-8.837 7.163-16 16-16v0h544c8.837 0 16 7.163 16 16v0z" />
<glyph unicode="&#xe912;" glyph-name="align-right-simple-thin" data-tags="align-right-simple-thin" d="M912 736v-576c0-8.837-7.163-16-16-16s-16 7.163-16 16v0 576c0 8.837 7.163 16 16 16s16-7.163 16-16v0zM784 576v-256c0-26.51-21.49-48-48-48v0h-608c-26.51 0-48 21.49-48 48v0 256c0 26.51 21.49 48 48 48v0h608c26.51 0 48-21.49 48-48v0zM752 576c0 8.837-7.163 16-16 16v0h-608c-8.837 0-16-7.163-16-16v0-256c0-8.837 7.163-16 16-16v0h608c8.837 0 16 7.163 16 16v0z" />
<glyph unicode="&#xe913;" glyph-name="align-right-thin" data-tags="align-right-thin" d="M880 800v-704c0-8.837-7.163-16-16-16s-16 7.163-16 16v0 704c0 8.837 7.163 16 16 16s16-7.163 16-16v0zM752 704v-160c0-26.51-21.49-48-48-48v0h-384c-26.51 0-48 21.49-48 48v0 160c0 26.51 21.49 48 48 48v0h384c26.51 0 48-21.49 48-48v0zM720 704c0 8.837-7.163 16-16 16v0h-384c-8.837 0-16-7.163-16-16v0-160c0-8.837 7.163-16 16-16v0h384c8.837 0 16 7.163 16 16v0zM752 352v-160c0-26.51-21.49-48-48-48v0h-544c-26.51 0-48 21.49-48 48v0 160c0 26.51 21.49 48 48 48v0h544c26.51 0 48-21.49 48-48v0zM720 352c0 8.837-7.163 16-16 16v0h-544c-8.837 0-16-7.163-16-16v0-160c0-8.837 7.163-16 16-16v0h544c8.837 0 16 7.163 16 16v0z" />
<glyph unicode="&#xe914;" glyph-name="align-top-simple-thin" data-tags="align-top-simple-thin" d="M816 832c0-8.837-7.163-16-16-16v0h-576c-8.837 0-16 7.163-16 16s7.163 16 16 16v0h576c8.837 0 16-7.163 16-16v0zM688 672v-608c0-26.51-21.49-48-48-48v0h-256c-26.51 0-48 21.49-48 48v0 608c0 26.51 21.49 48 48 48v0h256c26.51 0 48-21.49 48-48v0zM656 672c0 8.837-7.163 16-16 16v0h-256c-8.837 0-16-7.163-16-16v0-608c0-8.837 7.163-16 16-16v0h256c8.837 0 16 7.163 16 16v0z" />
<glyph unicode="&#xe915;" glyph-name="align-top-thin" data-tags="align-top-thin" d="M880 800c0-8.837-7.163-16-16-16v0h-704c-8.837 0-16 7.163-16 16s7.163 16 16 16v0h704c8.837 0 16-7.163 16-16v0zM816 640v-384c0-26.51-21.49-48-48-48v0h-160c-26.51 0-48 21.49-48 48v0 384c0 26.51 21.49 48 48 48v0h160c26.51 0 48-21.49 48-48v0zM784 640c0 8.837-7.163 16-16 16v0h-160c-8.837 0-16-7.163-16-16v0-384c0-8.837 7.163-16 16-16v0h160c8.837 0 16 7.163 16 16v0zM464 640v-544c0-26.51-21.49-48-48-48v0h-160c-26.51 0-48 21.49-48 48v0 544c0 26.51 21.49 48 48 48v0h160c26.51 0 48-21.49 48-48v0zM432 640c0 8.837-7.163 16-16 16v0h-160c-8.837 0-16-7.163-16-16v0-544c0-8.837 7.163-16 16-16v0h160c8.837 0 16 7.163 16 16v0z" />
<glyph unicode="&#xe916;" glyph-name="amazon-logo-thin" data-tags="amazon-logo-thin" d="M976 288v-128c0-8.837-7.163-16-16-16s-16 7.163-16 16v0 89.36l-36.4-36.4c-9.52-10.44-154.4-164.96-395.6-164.96-244.32 0-389.8 158.56-396 165.28-2.539 2.833-4.091 6.595-4.091 10.72 0 8.887 7.204 16.091 16.091 16.091 4.762 0 9.040-2.068 11.987-5.356l0.013-0.015c1.4-1.56 142.52-154.72 372-154.72s370.72 153.16 372 154.72l0.56 0.6 36.68 36.68h-89.24c-8.837 0-16 7.163-16 16s7.163 16 16 16v0h128c8.837 0 16-7.163 16-16v0zM656 537.96v86.040c0 0.024 0 0.052 0 0.080 0 88.366-71.634 160-160 160-61.855 0-115.512-35.1-142.14-86.469l-0.42-0.891c-2.629-5.449-8.111-9.141-14.455-9.141-8.837 0-16 7.163-16 16 0 2.825 0.732 5.479 2.017 7.783l-0.042-0.081c32.468 62.677 96.839 104.769 171.040 104.769 106.039 0 192-85.961 192-192 0-0.017 0-0.034 0-0.051v0.003-368c0-8.837-7.163-16-16-16s-16 7.163-16 16v0 70.040c-34.884-52.134-93.531-86-160.087-86-106.039 0-192 85.961-192 192s85.961 192 192 192c66.557 0 125.204-33.866 159.65-85.306l0.438-0.694zM656 432c0 88.366-71.634 160-160 160s-160-71.634-160-160c0-88.366 71.634-160 160-160v0c88.366 0 160 71.634 160 160v0z" />
<glyph unicode="&#xe917;" glyph-name="anchor-simple-thin" data-tags="anchor-simple-thin" d="M896 496h-96c-8.837 0-16-7.163-16-16s7.163-16 16-16v0h79.64c-8.81-190.558-161.083-342.83-350.827-351.61l-0.813-0.030v480.8c54.59 8.101 96 54.64 96 110.851 0 61.856-50.144 112-112 112s-112-50.144-112-112c0-56.211 41.41-102.75 95.387-110.776l0.613-0.075v-480.8c-190.558 8.81-342.83 161.083-351.61 350.827l-0.030 0.813h79.64c8.837 0 16 7.163 16 16s-7.163 16-16 16v0h-96c-8.837 0-16-7.163-16-16v0c0-220.914 179.086-400 400-400s400 179.086 400 400v0c0 8.837-7.163 16-16 16v0zM432 704c0 44.183 35.817 80 80 80s80-35.817 80-80c0-44.183-35.817-80-80-80v0c-44.183 0-80 35.817-80 80v0z" />
<glyph unicode="&#xe918;" glyph-name="anchor-thin" data-tags="anchor-thin" d="M864 400c-8.837 0-16-7.163-16-16v0c-0.114-97.156-78.844-175.886-175.989-176h-0.011c-59.315-0.028-111.766-29.393-143.632-74.372l-0.368-0.548v330.92h144c8.837 0 16 7.163 16 16s-7.163 16-16 16v0h-144v129.16c54.59 8.101 96 54.64 96 110.851 0 61.856-50.144 112-112 112s-112-50.144-112-112c0-56.211 41.41-102.75 95.387-110.776l0.613-0.075v-129.16h-144c-8.837 0-16-7.163-16-16s7.163-16 16-16v0h144v-330.92c-32.234 45.527-84.685 74.892-143.996 74.92h-0.004c-97.156 0.114-175.886 78.844-176 175.989v0.011c0 8.837-7.163 16-16 16s-16-7.163-16-16v0c0.137-114.82 93.18-207.863 207.987-208h0.013c79.529 0 144-64.471 144-144v0c0-8.837 7.163-16 16-16s16 7.163 16 16v0c0 79.529 64.471 144 144 144v0c114.82 0.137 207.863 93.18 208 207.987v0.013c0 8.837-7.163 16-16 16v0zM432 736c0 44.183 35.817 80 80 80s80-35.817 80-80c0-44.183-35.817-80-80-80v0c-44.183 0-80 35.817-80 80v0z" />
<glyph unicode="&#xe919;" glyph-name="android-logo-thin" data-tags="android-logo-thin" d="M688 336c0-17.673-14.327-32-32-32s-32 14.327-32 32c0 17.673 14.327 32 32 32v0c17.673 0 32-14.327 32-32v0zM368 368c-17.673 0-32-14.327-32-32s14.327-32 32-32c17.673 0 32 14.327 32 32v0c0 17.673-14.327 32-32 32v0zM944 288v-96c0-26.51-21.49-48-48-48v0h-768c-26.51 0-48 21.49-48 48v0 91.48c0 0.121 0 0.265 0 0.408 0 130.763 57.339 248.134 148.245 328.341l0.475 0.411-112 112c-2.897 2.897-4.689 6.899-4.689 11.32 0 8.841 7.167 16.009 16.009 16.009 4.421 0 8.423-1.792 11.32-4.689l114.28-114.28c70.475 54.031 159.813 86.69 256.768 87h1.592c0.356 0.001 0.778 0.002 1.199 0.002 97.305 0 187.037-32.423 258.982-87.054l-1.061 0.773 113.56 113.6c2.897 2.897 6.899 4.689 11.32 4.689 8.841 0 16.009-7.167 16.009-16.009 0-4.421-1.792-8.423-4.689-11.32l-111.32-111.24c7.12-6.24 14.080-12.68 20.84-19.44 78.535-77.78 127.162-185.637 127.162-304.852 0-0.404-0.001-0.807-0.002-1.21v0.062zM912 288c0 220.914-179.086 400-400 400v0h-1.4c-219.8-0.76-398.6-182.24-398.6-404.52v-91.48c0-8.837 7.163-16 16-16v0h768c8.837 0 16 7.163 16 16v0z" />
<glyph unicode="&#xe91a;" glyph-name="angular-logo-thin" data-tags="angular-logo-thin" d="M902.16 686.76l-384 160c-1.819 0.78-3.937 1.233-6.16 1.233s-4.341-0.453-6.265-1.273l0.105 0.040-384-160c-5.899-2.445-9.973-8.158-9.973-14.821 0-0.726 0.048-1.44 0.142-2.14l-0.009 0.082 64-480c0.729-5.364 4.025-9.825 8.59-12.158l0.090-0.042 320-160c2.086-1.066 4.55-1.691 7.16-1.691s5.074 0.625 7.251 1.733l-0.091-0.042 320 160c4.655 2.375 7.951 6.836 8.671 12.117l0.009 0.083 64 480c0.095 0.657 0.15 1.415 0.15 2.185 0 6.548-3.934 12.178-9.567 14.654l-0.103 0.040zM817.28 202.52l-305.28-152.64-305.28 152.64-61.24 459.44 366.52 152.72 366.52-152.72zM498 615.76l-160-288c-1.263-2.237-2.007-4.912-2.007-7.76 0-8.84 7.166-16.007 16.007-16.007 5.992 0 11.215 3.292 13.958 8.167l0.042 0.080 48.76 87.76h194.48l48.76-87.76c2.785-4.955 8.008-8.247 14-8.247 8.84 0 16.007 7.166 16.007 16.007 0 2.848-0.744 5.523-2.048 7.84l0.042-0.080-160 288c-2.782 4.958-8.006 8.254-14 8.254s-11.218-3.296-13.958-8.174l-0.042-0.080zM591.48 432h-158.96l79.48 143.040z" />
<glyph unicode="&#xe91b;" glyph-name="aperture-thin" data-tags="aperture-thin" d="M794.84 730.84c-72.507 73.127-173.006 118.399-284.079 118.399-220.914 0-400-179.086-400-400 0-111.073 45.272-211.572 118.371-284.051l0.028-0.027c72.507-73.127 173.006-118.399 284.079-118.399 220.914 0 400 179.086 400 400 0 111.073-45.272 211.572-118.371 284.051l-0.028 0.027zM836.32 273.76l-244 44.56 249.28 293.68c24.217-47.793 38.402-104.199 38.402-163.917 0-63.771-16.175-123.765-44.647-176.101l0.965 1.938zM383.48 471.48l84.52 99.56 128.56-23.44 44-123.080-84.56-99.56-128.56 23.44zM824.96 641.68l-160.52-189-129.44 362.52c122.526-7.93 227.926-74.649 289.061-171.986l0.899-1.534zM252 708c63.887 64.213 151.474 104.793 248.531 107.509l0.509 0.011 82.96-233.16-378.72 69.2c14.333 21.123 29.705 39.581 46.692 56.412l0.028 0.028zM188 622.040l244-44.56-249.6-293.48c-24.217 47.793-38.402 104.199-38.402 163.917 0 63.771 16.175 123.765 44.647 176.101l-0.965-1.938zM199.36 254.040l160.52 189 129.44-362.52c-122.526 7.93-227.926 74.649-289.061 171.986l-0.899 1.534zM772.52 187.52c-63.887-64.213-151.474-104.793-248.531-107.509l-0.509-0.011-83.48 233.64 378.88-69.2c-14.318-21.206-29.679-39.73-46.663-56.624l-0.017-0.016z" />
<glyph unicode="&#xe91c;" glyph-name="apple-logo-thin" data-tags="apple-logo-thin" d="M873.080 282.040c-73.64 50.6-89.080 135.56-89.080 197.96 0 76.68 57 142.12 91 174.28 3.083 2.923 5.001 7.047 5.001 11.62s-1.918 8.697-4.994 11.613l-0.007 0.007c-47 44.56-128.64 74.48-203 74.48-60.129-0.077-115.691-19.567-160.771-52.538l0.771 0.538c-44.099 32.507-99.509 52.026-159.478 52.026-75.085 0-143.023-30.599-192.024-80.007l-0.018-0.019c-49.832-50.911-80.582-120.671-80.582-197.614 0-2.668 0.037-5.326 0.11-7.976l-0.009 0.39c3.355-137.312 62.411-260.203 155.337-347.436l0.263-0.244c25.599-24.226 60.246-39.121 98.371-39.121 0.151 0 0.302 0 0.452 0.001h350.777c0.082 0 0.179 0 0.277 0 41.16 0 78.269 17.346 104.415 45.127l0.068 0.073c25.937 27.789 48.805 59.005 67.714 92.74l1.246 2.42c24.32 44.4 21.68 50.48 19.76 54.88-1.236 2.797-3.153 5.1-5.548 6.765l-0.052 0.035zM766.52 146.96c-20.346-21.547-49.108-34.96-81.002-34.96-0.112 0-0.223 0-0.335 0h-350.783c-0.088 0-0.193 0-0.297 0-29.633 0-56.563 11.575-76.515 30.449l0.052-0.049c-87.21 81.816-142.485 196.778-145.629 324.672l-0.011 0.568c-0.058 2.018-0.092 4.392-0.092 6.774 0 68.116 27.22 129.874 71.375 174.991l-0.043-0.045c42.716 43.607 102.207 70.641 168.012 70.641 0.263 0 0.526 0 0.788-0.001h3.319c55.799-0.588 106.875-20.329 147.082-52.947l-0.442 0.347c2.713-2.187 6.202-3.51 10-3.51s7.287 1.323 10.031 3.534l-0.031-0.024c40.368 32.763 92.38 52.602 149.025 52.602 0.343 0 0.685-0.001 1.028-0.002h-0.053c60.48 0 125.8-21.64 168.44-54.92-37.72-38.76-88.44-105.72-88.44-185.080 0-95.16 32-169.76 92.48-216.68-20.634-44.764-46.764-83.182-78.169-116.584l0.209 0.224zM528.52 836c16.559 62.602 72.692 108 139.427 108 0.018 0 0.037 0 0.055 0h3.997c8.837 0 16-7.163 16-16s-7.163-16-16-16v0h-4c-0.011 0-0.024 0-0.036 0-51.906 0-95.564-35.309-108.267-83.218l-0.176-0.782c-1.84-6.956-8.077-12-15.492-12-0.010 0-0.020 0-0.030 0h0.002c-0.006 0-0.014 0-0.021 0-1.415 0-2.785 0.19-4.087 0.545l0.109-0.025c-6.949 1.845-11.986 8.078-11.986 15.488 0 1.418 0.185 2.794 0.531 4.103l-0.025-0.112z" />
<glyph unicode="&#xe91d;" glyph-name="apple-podcasts-logo-thin" data-tags="apple-podcasts-logo-thin" d="M589.040 398.8c21.552 20.455 34.96 49.309 34.96 81.295 0 61.856-50.144 112-112 112s-112-50.144-112-112c0-31.986 13.408-60.84 34.911-81.249l0.049-0.046c-20.524-3.576-38.016-14.497-50.025-29.901l-0.135-0.179c-10.474-13.24-16.801-30.179-16.801-48.596 0-6.966 0.905-13.721 2.605-20.153l-0.123 0.549 48.72-192c9.274-35.080 40.726-60.521 78.121-60.521 0.154 0 0.309 0 0.463 0.001h28.456c0.13-0.001 0.285-0.001 0.439-0.001 37.395 0 68.847 25.441 77.994 59.958l0.127 0.563 48.72 192c1.576 5.883 2.481 12.638 2.481 19.604 0 18.417-6.328 35.356-16.927 48.761l0.126-0.165c-12.144 15.583-29.636 26.504-49.678 30.010l-0.482 0.070zM432 480c0 44.183 35.817 80 80 80s80-35.817 80-80c0-44.183-35.817-80-80-80v0c-44.183 0-80 35.817-80 80v0zM622.52 308.4l-48.72-192c-5.666-21.113-24.632-36.402-47.168-36.402-0.138 0-0.276 0.001-0.413 0.002h-28.459c-0.117-0.001-0.254-0.002-0.392-0.002-22.536 0-41.502 15.289-47.090 36.060l-0.078 0.341-48.72 192c-0.931 3.497-1.466 7.511-1.466 11.651 0 11 3.775 21.118 10.101 29.129l-0.076-0.099c9.043 11.56 22.993 18.921 38.662 18.921 0.105 0 0.21 0 0.314-0.001h125.984c0.089 0.001 0.193 0.001 0.298 0.001 15.669 0 29.619-7.361 38.581-18.813l0.081-0.108c6.25-7.912 10.026-18.030 10.026-29.029 0-4.139-0.535-8.154-1.539-11.978l0.073 0.328zM752 448c-0.135 132.446-107.535 239.763-240 239.763-132.548 0-240-107.452-240-240 0-21.236 2.758-41.827 7.935-61.436l-0.376 1.673c0.323-1.2 0.508-2.579 0.508-4 0-8.841-7.167-16.008-16.008-16.008-7.419 0-13.66 5.048-15.475 11.896l-0.025 0.112c-5.437 20.318-8.56 43.644-8.56 67.701 0 150.221 121.779 272 272 272s272-121.779 272-272c0-24.056-3.123-47.383-8.985-69.597l0.425 1.896c-1.839-6.952-8.070-11.994-15.479-12h-0.001c-0.016 0-0.034 0-0.053 0-1.404 0-2.763 0.19-4.054 0.545l0.107-0.025c-6.968 1.832-12.023 8.074-12.023 15.498 0 1.415 0.184 2.787 0.528 4.094l-0.025-0.112c4.802 17.997 7.56 38.659 7.56 59.965 0 0.012 0 0.024 0 0.036v-0.002zM912 448c0-0.097 0-0.212 0-0.327 0-138.424-70.405-260.403-177.358-332.084l-1.442-0.91c-2.54-1.774-5.692-2.835-9.093-2.835-8.837 0-16 7.163-16 16 0 5.633 2.911 10.586 7.31 13.437l0.062 0.038c99.745 66.885 164.52 179.191 164.52 306.627 0 203.241-164.759 368-368 368s-368-164.759-368-368c0-127.435 64.775-239.741 163.196-305.79l1.324-0.837c4.462-2.889 7.373-7.842 7.373-13.475 0-8.837-7.163-16-16-16-3.4 0-6.553 1.061-9.145 2.869l0.052-0.034c-108.404 72.704-178.8 194.767-178.8 333.272 0 220.914 179.086 400 400 400 220.897 0 399.973-179.059 400-399.95v-0.003z" />
<glyph unicode="&#xe91e;" glyph-name="app-store-logo-thin" data-tags="app-store-logo-thin" d="M243.6 184l-37.84-64c-2.574-5.596-8.131-9.411-14.58-9.411-8.837 0-16 7.163-16 16 0 3.537 1.148 6.806 3.091 9.455l-0.031-0.045 37.76 64c2.925 4.203 7.732 6.919 13.174 6.919 8.837 0 16-7.163 16-16 0-2.516-0.581-4.896-1.615-7.014l0.042 0.095zM928 336h-200.32l-127.68 216c-2.836 4.74-7.943 7.865-13.78 7.865-8.839 0-16.005-7.166-16.005-16.005 0-3.002 0.827-5.812 2.265-8.213l-0.040 0.073 245.8-415.72c2.759-5.043 8.029-8.406 14.083-8.406 8.837 0 16 7.163 16 16 0 3.228-0.956 6.233-2.601 8.747l0.038-0.061-99.16 168h181.4c8.837 0 16 7.163 16 16s-7.163 16-16 16v0zM569.88 336h-236.4l288.28 488c1.912 2.604 3.060 5.873 3.060 9.411 0 8.837-7.163 16-16 16-6.449 0-12.006-3.815-14.539-9.311l-0.041-0.099-82.24-139-82.24 139c-2.574 5.596-8.131 9.411-14.58 9.411-8.837 0-16-7.163-16-16 0-3.537 1.148-6.806 3.091-9.455l-0.031 0.045 91.16-154.32-197.080-333.68h-200.32c-8.837 0-16-7.163-16-16s7.163-16 16-16v0h473.88c8.837 0 16 7.163 16 16s-7.163 16-16 16v0z" />
<glyph unicode="&#xe91f;" glyph-name="app-window-thin" data-tags="app-window-thin" d="M864 784h-704c-26.51 0-48-21.49-48-48v0-576c0-26.51 21.49-48 48-48v0h704c26.51 0 48 21.49 48 48v0 576c0 26.51-21.49 48-48 48v0zM880 160c0-8.837-7.163-16-16-16v0h-704c-8.837 0-16 7.163-16 16v0 576c0 8.837 7.163 16 16 16v0h704c8.837 0 16-7.163 16-16v0zM304 624c0-17.673-14.327-32-32-32s-32 14.327-32 32c0 17.673 14.327 32 32 32v0c17.673 0 32-14.327 32-32v0zM464 624c0-17.673-14.327-32-32-32s-32 14.327-32 32c0 17.673 14.327 32 32 32v0c17.673 0 32-14.327 32-32v0z" />
<glyph unicode="&#xe920;" glyph-name="archive-box-thin" data-tags="archive-box-thin" d="M878.32 679.16l-64 128c-2.686 5.283-8.082 8.84-14.309 8.84-0.004 0-0.008 0-0.012 0h-575.999c-0.003 0-0.007 0-0.011 0-6.226 0-11.622-3.557-14.267-8.749l-0.042-0.091-64-128c-1.059-2.080-1.68-4.536-1.68-7.137 0-0.008 0-0.016 0-0.024v0.001-544c0-26.51 21.49-48 48-48v0h640c26.51 0 48 21.49 48 48v0 544c0 0.007 0 0.015 0 0.023 0 2.601-0.621 5.057-1.722 7.228l0.042-0.091zM233.88 784h556.24l48-96h-652.24zM832 112h-640c-8.837 0-16 7.163-16 16v0 528h672v-528c0-8.837-7.163-16-16-16v0zM651.32 363.32c2.899-2.896 4.693-6.899 4.693-11.32s-1.793-8.424-4.692-11.32v0l-128-128c-2.896-2.899-6.899-4.693-11.32-4.693s-8.424 1.793-11.32 4.692v0l-128 128c-2.897 2.897-4.689 6.899-4.689 11.32 0 8.841 7.167 16.009 16.009 16.009 4.421 0 8.423-1.792 11.32-4.689l100.68-100.68v281.36c0 8.837 7.163 16 16 16s16-7.163 16-16v0-281.36l100.68 100.68c2.896 2.899 6.899 4.693 11.32 4.693s8.424-1.793 11.32-4.692v0z" />
<glyph unicode="&#xe921;" glyph-name="archive-thin" data-tags="archive-thin" d="M896 752h-768c-26.51 0-48-21.49-48-48v0-96c0-26.51 21.49-48 48-48v0h16v-368c0-26.51 21.49-48 48-48v0h640c26.51 0 48 21.49 48 48v0 368h16c26.51 0 48 21.49 48 48v0 96c0 26.51-21.49 48-48 48v0zM848 192c0-8.837-7.163-16-16-16v0h-640c-8.837 0-16 7.163-16 16v0 368h672zM912 608c0-8.837-7.163-16-16-16v0h-768c-8.837 0-16 7.163-16 16v0 96c0 8.837 7.163 16 16 16v0h768c8.837 0 16-7.163 16-16v0zM400 416c0 8.837 7.163 16 16 16v0h192c8.837 0 16-7.163 16-16s-7.163-16-16-16v0h-192c-8.837 0-16 7.163-16 16v0z" />
<glyph unicode="&#xe922;" glyph-name="archive-tray-thin" data-tags="archive-tray-thin" d="M832 816h-640c-26.51 0-48-21.49-48-48v0-640c0-26.51 21.49-48 48-48v0h640c26.51 0 48 21.49 48 48v0 640c0 26.51-21.49 48-48 48v0zM192 784h640c8.837 0 16-7.163 16-16v0-432h-130.76c-13.245-0.001-25.236-5.366-33.92-14.040v0l-77.28-77.28c-2.888-2.885-6.875-4.672-11.279-4.68h-165.521c-4.405 0.008-8.392 1.795-11.28 4.68v0l-77.28 77.28c-8.684 8.675-20.675 14.039-33.92 14.040h-130.76v432c0 8.837 7.163 16 16 16v0zM832 112h-640c-8.837 0-16 7.163-16 16v0 176h130.76c4.405-0.008 8.392-1.795 11.28-4.68v0l77.28-77.28c8.684-8.675 20.675-14.039 33.92-14.040h165.52c13.245 0.001 25.236 5.366 33.92 14.040v0l77.28 77.28c2.888 2.885 6.875 4.672 11.279 4.68h130.761v-176c0-8.837-7.163-16-16-16v0zM372.68 468.68c-2.897 2.897-4.689 6.899-4.689 11.32 0 8.841 7.167 16.009 16.009 16.009 4.421 0 8.423-1.792 11.32-4.689l100.68-100.68v281.36c0 8.837 7.163 16 16 16s16-7.163 16-16v0-281.36l100.68 100.68c2.897 2.897 6.899 4.689 11.32 4.689 8.841 0 16.009-7.167 16.009-16.009 0-4.421-1.792-8.423-4.689-11.32l-128-128c-2.896-2.899-6.899-4.693-11.32-4.693s-8.424 1.793-11.32 4.692v0z" />
<glyph unicode="&#xe923;" glyph-name="armchair-thin" data-tags="armchair-thin" d="M848 591.080v80.92c0 79.529-64.471 144-144 144v0h-384c-79.529 0-144-64.471-144-144v0-80.92c-72.31-8.359-127.925-69.235-127.925-143.1s55.616-134.741 127.256-143.037l0.669-0.063v-144.88c0-26.51 21.49-48 48-48v0h576c26.51 0 48 21.49 48 48v0 144.88c72.31 8.359 127.925 69.235 127.925 143.1s-55.616 134.741-127.256 143.037l-0.669 0.063zM320 784h384c61.856 0 112-50.144 112-112v0-80.92c-72.335-8.323-127.985-69.2-128-143.079v-16.001h-352v16c-0.015 73.88-55.665 134.758-127.333 143.018l-0.667 0.062v80.92c0 61.856 50.144 112 112 112v0zM833.2 336h-1.2c-8.837 0-16-7.163-16-16v0-160c0-8.837-7.163-16-16-16v0h-576c-8.837 0-16 7.163-16 16v0 160c0 8.837-7.163 16-16 16v0h-1.2c-61.338 0.678-110.8 50.56-110.8 111.994 0 61.856 50.144 112 112 112 61.854 0 111.996-50.14 112-111.993v0-160c0-8.837 7.163-16 16-16s16 7.163 16 16v0 112h352v-112c0-8.837 7.163-16 16-16s16 7.163 16 16v0 160c0.004 61.853 50.146 111.994 112 111.994 61.856 0 112-50.144 112-112 0-61.434-49.462-111.315-110.736-111.993l-0.064-0.001z" />
<glyph unicode="&#xe924;" glyph-name="arrow-arc-left-thin" data-tags="arrow-arc-left-thin" d="M912 224c0-8.837-7.163-16-16-16s-16 7.163-16 16v0c-0.245 203.056-164.91 367.57-368 367.57-101.514 0-193.427-41.103-260.005-107.575l0.005 0.005-117.2-116h217.2c8.837 0 16-7.163 16-16s-7.163-16-16-16v0h-256c-8.837 0-16 7.163-16 16v0 256c0 8.837 7.163 16 16 16s16-7.163 16-16v0-217.56l117.2 116.44c72.382 72.36 172.364 117.115 282.8 117.115 220.912 0 399.997-179.083 400-399.995v0z" />
<glyph unicode="&#xe925;" glyph-name="arrow-arc-right-thin" data-tags="arrow-arc-right-thin" d="M944 608v-256c0-8.837-7.163-16-16-16v0h-256c-8.837 0-16 7.163-16 16s7.163 16 16 16v0h217.2l-116.96 116c-66.597 66.61-158.607 107.809-260.24 107.809-203.174 0-367.891-164.65-368-367.799v-0.011c0-8.837-7.163-16-16-16s-16 7.163-16 16v0c0.003 220.912 179.088 399.995 400 399.995 110.456 0 210.455-44.771 282.84-117.155v0l117.16-116.4v217.56c0 8.837 7.163 16 16 16s16-7.163 16-16v0z" />
<glyph unicode="&#xe926;" glyph-name="arrow-bend-double-up-left-thin" data-tags="arrow-bend-double-up-left-thin" d="M331.32 363.32c2.897-2.897 4.689-6.899 4.689-11.32 0-8.841-7.167-16.009-16.009-16.009-4.421 0-8.423 1.792-11.32 4.689l-192 192c-2.899 2.896-4.693 6.899-4.693 11.32s1.793 8.424 4.692 11.32v0l192 192c2.897 2.897 6.899 4.689 11.32 4.689 8.841 0 16.009-7.167 16.009-16.009 0-4.421-1.792-8.423-4.689-11.32l-180.68-180.68zM512 560h-153.36l164.68 164.68c2.897 2.897 4.689 6.899 4.689 11.32 0 8.841-7.167 16.009-16.009 16.009-4.421 0-8.423-1.792-11.32-4.689l-192-192c-2.899-2.896-4.693-6.899-4.693-11.32s1.793-8.424 4.692-11.32v0l192-192c2.897-2.897 6.899-4.689 11.32-4.689 8.841 0 16.009 7.167 16.009 16.009 0 4.421-1.792 8.423-4.689 11.32l-164.68 164.68h153.36c203.149-0.228 367.772-164.851 368-367.978v-0.022c0-8.837 7.163-16 16-16s16 7.163 16 16v0c-0.25 220.813-179.187 399.75-399.976 400h-0.024z" />
<glyph unicode="&#xe927;" glyph-name="arrow-bend-double-up-right-thin" data-tags="arrow-bend-double-up-right-thin" d="M907.32 532.68l-192-192c-2.897-2.897-6.899-4.689-11.32-4.689-8.841 0-16.009 7.167-16.009 16.009 0 4.421 1.792 8.423 4.689 11.32l180.68 180.68-180.68 180.68c-2.897 2.897-4.689 6.899-4.689 11.32 0 8.841 7.167 16.009 16.009 16.009 4.421 0 8.423-1.792 11.32-4.689l192-192c2.899-2.896 4.693-6.899 4.693-11.32s-1.793-8.424-4.692-11.32v0zM715.32 555.32l-192 192c-2.897 2.897-6.899 4.689-11.32 4.689-8.841 0-16.009-7.167-16.009-16.009 0-4.421 1.792-8.423 4.689-11.32l164.68-164.68h-153.36c-220.813-0.25-399.75-179.187-400-399.976v-0.024c0-8.837 7.163-16 16-16s16 7.163 16 16v0c0.228 203.149 164.851 367.772 367.978 368h153.382l-164.68-164.68c-2.897-2.897-4.689-6.899-4.689-11.32 0-8.841 7.167-16.009 16.009-16.009 4.421 0 8.423 1.792 11.32 4.689l192 192c2.899 2.896 4.693 6.899 4.693 11.32s-1.793 8.424-4.692 11.32v0z" />
<glyph unicode="&#xe928;" glyph-name="arrow-bend-down-left-thin" data-tags="arrow-bend-down-left-thin" d="M912 736c-0.25-220.813-179.187-399.75-399.976-400h-345.384l164.68-164.68c2.897-2.897 4.689-6.899 4.689-11.32 0-8.841-7.167-16.009-16.009-16.009-4.421 0-8.423 1.792-11.32 4.689l-192 192c-2.899 2.896-4.693 6.899-4.693 11.32s1.793 8.424 4.692 11.32v0l192 192c2.897 2.897 6.899 4.689 11.32 4.689 8.841 0 16.009-7.167 16.009-16.009 0-4.421-1.792-8.423-4.689-11.32l-164.68-164.68h345.36c203.149 0.228 367.772 164.851 368 367.978v0.022c0 8.837 7.163 16 16 16s16-7.163 16-16v0z" />
<glyph unicode="&#xe929;" glyph-name="arrow-bend-down-right-thin" data-tags="arrow-bend-down-right-thin" d="M907.32 340.68l-192-192c-2.897-2.897-6.899-4.689-11.32-4.689-8.841 0-16.009 7.167-16.009 16.009 0 4.421 1.792 8.423 4.689 11.32l164.68 164.68h-345.36c-220.813 0.25-399.75 179.187-400 399.976v0.024c0 8.837 7.163 16 16 16s16-7.163 16-16v0c0.228-203.149 164.851-367.772 367.978-368h345.382l-164.68 164.68c-2.897 2.897-4.689 6.899-4.689 11.32 0 8.841 7.167 16.009 16.009 16.009 4.421 0 8.423-1.792 11.32-4.689l192-192c2.899-2.896 4.693-6.899 4.693-11.32s-1.793-8.424-4.692-11.32v0z" />
<glyph unicode="&#xe92a;" glyph-name="arrow-bend-left-down-thin" data-tags="arrow-bend-left-down-thin" d="M816 832c0-8.837-7.163-16-16-16v0c-203.149-0.228-367.772-164.851-368-367.978v-345.382l164.68 164.68c2.897 2.897 6.899 4.689 11.32 4.689 8.841 0 16.009-7.167 16.009-16.009 0-4.421-1.792-8.423-4.689-11.32l-192-192c-2.896-2.899-6.899-4.693-11.32-4.693s-8.424 1.793-11.32 4.692v0l-192 192c-2.897 2.897-4.689 6.899-4.689 11.32 0 8.841 7.167 16.009 16.009 16.009 4.421 0 8.423-1.792 11.32-4.689l164.68-164.68v345.36c0.25 220.813 179.187 399.75 399.976 400h0.024c8.837 0 16-7.163 16-16v0z" />
<glyph unicode="&#xe92b;" glyph-name="arrow-bend-left-up-thin" data-tags="arrow-bend-left-up-thin" d="M816 64c0-8.837-7.163-16-16-16v0c-220.813 0.25-399.75 179.187-400 399.976v345.384l-164.68-164.68c-2.897-2.897-6.899-4.689-11.32-4.689-8.841 0-16.009 7.167-16.009 16.009 0 4.421 1.792 8.423 4.689 11.32l192 192c2.896 2.899 6.899 4.693 11.32 4.693s8.424-1.793 11.32-4.692v0l192-192c2.897-2.897 4.689-6.899 4.689-11.32 0-8.841-7.167-16.009-16.009-16.009-4.421 0-8.423 1.792-11.32 4.689l-164.68 164.68v-345.36c0.228-203.149 164.851-367.772 367.978-368h0.022c8.837 0 16-7.163 16-16v0z" />
<glyph unicode="&#xe92c;" glyph-name="arrow-bend-right-down-thin" data-tags="arrow-bend-right-down-thin" d="M811.32 244.68l-192-192c-2.896-2.899-6.899-4.693-11.32-4.693s-8.424 1.793-11.32 4.692v0l-192 192c-2.897 2.897-4.689 6.899-4.689 11.32 0 8.841 7.167 16.009 16.009 16.009 4.421 0 8.423-1.792 11.32-4.689l164.68-164.68v345.36c-0.228 203.149-164.851 367.772-367.978 368h-0.022c-8.837 0-16 7.163-16 16s7.163 16 16 16v0c220.813-0.25 399.75-179.187 400-399.976v-345.384l164.68 164.68c2.897 2.897 6.899 4.689 11.32 4.689 8.841 0 16.009-7.167 16.009-16.009 0-4.421-1.792-8.423-4.689-11.32v0z" />
<glyph unicode="&#xe92d;" glyph-name="arrow-bend-right-up-thin" data-tags="arrow-bend-right-up-thin" d="M811.32 628.68c-2.896-2.899-6.899-4.693-11.32-4.693s-8.424 1.793-11.32 4.692v0l-164.68 164.68v-345.36c-0.25-220.813-179.187-399.75-399.976-400h-0.024c-8.837 0-16 7.163-16 16s7.163 16 16 16v0c203.149 0.228 367.772 164.851 368 367.978v345.382l-164.68-164.68c-2.897-2.897-6.899-4.689-11.32-4.689-8.841 0-16.009 7.167-16.009 16.009 0 4.421 1.792 8.423 4.689 11.32l192 192c2.896 2.899 6.899 4.693 11.32 4.693s8.424-1.793 11.32-4.692v0l192-192c2.899-2.896 4.693-6.899 4.693-11.32s-1.793-8.424-4.692-11.32v0z" />
<glyph unicode="&#xe92e;" glyph-name="arrow-bend-up-left-thin" data-tags="arrow-bend-up-left-thin" d="M912 160c0-8.837-7.163-16-16-16s-16 7.163-16 16v0c-0.228 203.149-164.851 367.772-367.978 368h-345.382l164.68-164.68c2.897-2.897 4.689-6.899 4.689-11.32 0-8.841-7.167-16.009-16.009-16.009-4.421 0-8.423 1.792-11.32 4.689l-192 192c-2.899 2.896-4.693 6.899-4.693 11.32s1.793 8.424 4.692 11.32v0l192 192c2.897 2.897 6.899 4.689 11.32 4.689 8.841 0 16.009-7.167 16.009-16.009 0-4.421-1.792-8.423-4.689-11.32l-164.68-164.68h345.36c220.813-0.25 399.75-179.187 400-399.976v-0.024z" />
<glyph unicode="&#xe92f;" glyph-name="arrow-bend-up-right-thin" data-tags="arrow-bend-up-right-thin" d="M907.32 532.68l-192-192c-2.897-2.897-6.899-4.689-11.32-4.689-8.841 0-16.009 7.167-16.009 16.009 0 4.421 1.792 8.423 4.689 11.32l164.68 164.68h-345.36c-203.149-0.228-367.772-164.851-368-367.978v-0.022c0-8.837-7.163-16-16-16s-16 7.163-16 16v0c0.25 220.813 179.187 399.75 399.976 400h345.384l-164.68 164.68c-2.897 2.897-4.689 6.899-4.689 11.32 0 8.841 7.167 16.009 16.009 16.009 4.421 0 8.423-1.792 11.32-4.689l192-192c2.899-2.896 4.693-6.899 4.693-11.32s-1.793-8.424-4.692-11.32v0z" />
<glyph unicode="&#xe930;" glyph-name="arrow-circle-down-left-thin" data-tags="arrow-circle-down-left-thin" d="M512 848c-220.914 0-400-179.086-400-400s179.086-400 400-400c220.914 0 400 179.086 400 400v0c-0.25 220.813-179.187 399.75-399.976 400h-0.024zM512 80c-203.241 0-368 164.759-368 368s164.759 368 368 368c203.241 0 368-164.759 368-368v0c-0.228-203.149-164.851-367.772-367.978-368h-0.022zM651.32 587.32c2.899-2.896 4.693-6.899 4.693-11.32s-1.793-8.424-4.692-11.32v0l-228.68-228.68h153.36c8.837 0 16-7.163 16-16s-7.163-16-16-16v0h-192c-8.837 0-16 7.163-16 16v0 192c0 8.837 7.163 16 16 16s16-7.163 16-16v0-153.36l228.68 228.68c2.896 2.899 6.899 4.693 11.32 4.693s8.424-1.793 11.32-4.692v0z" />
<glyph unicode="&#xe931;" glyph-name="arrow-circle-down-right-thin" data-tags="arrow-circle-down-right-thin" d="M512 848c-220.914 0-400-179.086-400-400s179.086-400 400-400c220.914 0 400 179.086 400 400v0c-0.25 220.813-179.187 399.75-399.976 400h-0.024zM512 80c-203.241 0-368 164.759-368 368s164.759 368 368 368c203.241 0 368-164.759 368-368v0c-0.228-203.149-164.851-367.772-367.978-368h-0.022zM656 512v-192c0-8.837-7.163-16-16-16v0h-192c-8.837 0-16 7.163-16 16s7.163 16 16 16v0h153.36l-228.68 228.68c-2.897 2.897-4.689 6.899-4.689 11.32 0 8.841 7.167 16.009 16.009 16.009 4.421 0 8.423-1.792 11.32-4.689l228.68-228.68v153.36c0 8.837 7.163 16 16 16s16-7.163 16-16v0z" />
<glyph unicode="&#xe932;" glyph-name="arrow-circle-down-thin" data-tags="arrow-circle-down-thin" d="M512 848c-220.914 0-400-179.086-400-400s179.086-400 400-400c220.914 0 400 179.086 400 400v0c-0.25 220.813-179.187 399.75-399.976 400h-0.024zM512 80c-203.241 0-368 164.759-368 368s164.759 368 368 368c203.241 0 368-164.759 368-368v0c-0.228-203.149-164.851-367.772-367.978-368h-0.022zM651.32 427.32c2.899-2.896 4.693-6.899 4.693-11.32s-1.793-8.424-4.692-11.32v0l-128-128c-2.896-2.899-6.899-4.693-11.32-4.693s-8.424 1.793-11.32 4.692v0l-128 128c-2.897 2.897-4.689 6.899-4.689 11.32 0 8.841 7.167 16.009 16.009 16.009 4.421 0 8.423-1.792 11.32-4.689l100.68-100.68v281.36c0 8.837 7.163 16 16 16s16-7.163 16-16v0-281.36l100.68 100.68c2.896 2.899 6.899 4.693 11.32 4.693s8.424-1.793 11.32-4.692v0z" />
<glyph unicode="&#xe933;" glyph-name="arrow-circle-left-thin" data-tags="arrow-circle-left-thin" d="M512 848c-220.914 0-400-179.086-400-400s179.086-400 400-400c220.914 0 400 179.086 400 400v0c-0.25 220.813-179.187 399.75-399.976 400h-0.024zM512 80c-203.241 0-368 164.759-368 368s164.759 368 368 368c203.241 0 368-164.759 368-368v0c-0.228-203.149-164.851-367.772-367.978-368h-0.022zM688 448c0-8.837-7.163-16-16-16v0h-281.36l100.68-100.68c2.897-2.897 4.689-6.899 4.689-11.32 0-8.841-7.167-16.009-16.009-16.009-4.421 0-8.423 1.792-11.32 4.689l-128 128c-2.899 2.896-4.693 6.899-4.693 11.32s1.793 8.424 4.692 11.32v0l128 128c2.897 2.897 6.899 4.689 11.32 4.689 8.841 0 16.009-7.167 16.009-16.009 0-4.421-1.792-8.423-4.689-11.32l-100.68-100.68h281.36c8.837 0 16-7.163 16-16v0z" />
<glyph unicode="&#xe934;" glyph-name="arrow-circle-right-thin" data-tags="arrow-circle-right-thin" d="M512 848c-220.914 0-400-179.086-400-400s179.086-400 400-400c220.914 0 400 179.086 400 400v0c-0.25 220.813-179.187 399.75-399.976 400h-0.024zM512 80c-203.241 0-368 164.759-368 368s164.759 368 368 368c203.241 0 368-164.759 368-368v0c-0.228-203.149-164.851-367.772-367.978-368h-0.022zM683.32 459.32c2.899-2.896 4.693-6.899 4.693-11.32s-1.793-8.424-4.692-11.32v0l-128-128c-2.897-2.897-6.899-4.689-11.32-4.689-8.841 0-16.009 7.167-16.009 16.009 0 4.421 1.792 8.423 4.689 11.32l100.68 100.68h-281.36c-8.837 0-16 7.163-16 16s7.163 16 16 16v0h281.36l-100.68 100.68c-2.897 2.897-4.689 6.899-4.689 11.32 0 8.841 7.167 16.009 16.009 16.009 4.421 0 8.423-1.792 11.32-4.689v0z" />
<glyph unicode="&#xe935;" glyph-name="arrow-circle-up-left-thin" data-tags="arrow-circle-up-left-thin" d="M512 848c-220.914 0-400-179.086-400-400s179.086-400 400-400c220.914 0 400 179.086 400 400v0c-0.25 220.813-179.187 399.75-399.976 400h-0.024zM512 80c-203.241 0-368 164.759-368 368s164.759 368 368 368c203.241 0 368-164.759 368-368v0c-0.228-203.149-164.851-367.772-367.978-368h-0.022zM651.32 331.32c2.897-2.897 4.689-6.899 4.689-11.32 0-8.841-7.167-16.009-16.009-16.009-4.421 0-8.423 1.792-11.32 4.689l-228.68 228.68v-153.36c0-8.837-7.163-16-16-16s-16 7.163-16 16v0 192c0 8.837 7.163 16 16 16v0h192c8.837 0 16-7.163 16-16s-7.163-16-16-16v0h-153.36z" />
<glyph unicode="&#xe936;" glyph-name="arrow-circle-up-right-thin" data-tags="arrow-circle-up-right-thin" d="M512 848c-220.914 0-400-179.086-400-400s179.086-400 400-400c220.914 0 400 179.086 400 400v0c-0.25 220.813-179.187 399.75-399.976 400h-0.024zM512 80c-203.241 0-368 164.759-368 368s164.759 368 368 368c203.241 0 368-164.759 368-368v0c-0.228-203.149-164.851-367.772-367.978-368h-0.022zM656 576v-192c0-8.837-7.163-16-16-16s-16 7.163-16 16v0 153.36l-228.68-228.68c-2.897-2.897-6.899-4.689-11.32-4.689-8.841 0-16.009 7.167-16.009 16.009 0 4.421 1.792 8.423 4.689 11.32l228.68 228.68h-153.36c-8.837 0-16 7.163-16 16s7.163 16 16 16v0h192c8.837 0 16-7.163 16-16v0z" />
<glyph unicode="&#xe937;" glyph-name="arrow-circle-up-thin" data-tags="arrow-circle-up-thin" d="M512 848c-220.914 0-400-179.086-400-400s179.086-400 400-400c220.914 0 400 179.086 400 400v0c-0.25 220.813-179.187 399.75-399.976 400h-0.024zM512 80c-203.241 0-368 164.759-368 368s164.759 368 368 368c203.241 0 368-164.759 368-368v0c-0.228-203.149-164.851-367.772-367.978-368h-0.022zM651.32 491.32c2.897-2.897 4.689-6.899 4.689-11.32 0-8.841-7.167-16.009-16.009-16.009-4.421 0-8.423 1.792-11.32 4.689l-100.68 100.68v-281.36c0-8.837-7.163-16-16-16s-16 7.163-16 16v0 281.36l-100.68-100.68c-2.897-2.897-6.899-4.689-11.32-4.689-8.841 0-16.009 7.167-16.009 16.009 0 4.421 1.792 8.423 4.689 11.32l128 128c2.896 2.899 6.899 4.693 11.32 4.693s8.424-1.793 11.32-4.692v0z" />
<glyph unicode="&#xe938;" glyph-name="arrow-clockwise-thin" data-tags="arrow-clockwise-thin" d="M944 736v-192c0-8.837-7.163-16-16-16v0h-192c-8.837 0-16 7.163-16 16s7.163 16 16 16v0h150.8l-137.2 125.72c-60.801 60.784-144.787 98.379-237.555 98.379-185.568 0-336-150.432-336-336s150.432-336 336-336c89.336 0 170.53 34.865 230.715 91.731l-0.16-0.15c2.862 2.709 6.737 4.375 11 4.375 8.845 0 16.015-7.17 16.015-16.015 0-4.582-1.924-8.714-5.008-11.633l-0.007-0.007c-65.426-62.164-154.102-100.401-251.708-100.401-0.314 0-0.627 0-0.941 0.001h-4.991c-200.953 2.98-362.712 166.581-362.712 367.962 0 203.241 164.759 368 368 368 101.39 0 193.203-41.003 259.762-107.332l-0.010 0.010 140-128.2v155.56c0 8.837 7.163 16 16 16s16-7.163 16-16v0z" />
<glyph unicode="&#xe939;" glyph-name="arrow-counter-clockwise-thin" data-tags="arrow-counter-clockwise-thin" d="M880 448c0-0.010 0-0.021 0-0.033 0-201.511-161.967-365.193-362.819-367.964l-0.261-0.003h-4.92c-0.222 0-0.485-0.001-0.748-0.001-97.627 0-186.323 38.236-251.93 100.55l0.158-0.149c-3.091 2.926-5.015 7.058-5.015 11.64 0 8.845 7.17 16.015 16.015 16.015 4.263 0 8.138-1.666 11.007-4.382l-0.007 0.007c60.020-56.692 141.197-91.542 230.513-91.542 185.568 0 336 150.432 336 336s-150.432 336-336 336c-92.787 0-176.789-37.61-237.593-98.417v0l-0.52-0.48-136.68-125.24h150.8c8.837 0 16-7.163 16-16s-7.163-16-16-16v0h-192c-8.837 0-16 7.163-16 16v0 192c0 8.837 7.163 16 16 16s16-7.163 16-16v0-155.56l140 128c66.573 66.467 158.487 107.57 260 107.57 203.241 0 368-164.759 368-368 0-0.003 0-0.007 0-0.010v0.001z" />
<glyph unicode="&#xe93a;" glyph-name="arrow-down-left-thin" data-tags="arrow-down-left-thin" d="M779.32 692.68l-484.68-484.68h377.36c8.837 0 16-7.163 16-16s-7.163-16-16-16v0h-416c-8.837 0-16 7.163-16 16v0 416c0 8.837 7.163 16 16 16s16-7.163 16-16v0-377.36l484.68 484.68c2.897 2.897 6.899 4.689 11.32 4.689 8.841 0 16.009-7.167 16.009-16.009 0-4.421-1.792-8.423-4.689-11.32v0z" />
<glyph unicode="&#xe93b;" glyph-name="arrow-down-right-thin" data-tags="arrow-down-right-thin" d="M784 608v-416c0-8.837-7.163-16-16-16v0h-416c-8.837 0-16 7.163-16 16s7.163 16 16 16v0h377.36l-484.68 484.68c-2.897 2.897-4.689 6.899-4.689 11.32 0 8.841 7.167 16.009 16.009 16.009 4.421 0 8.423-1.792 11.32-4.689l484.68-484.68v377.36c0 8.837 7.163 16 16 16s16-7.163 16-16v0z" />
<glyph unicode="&#xe93c;" glyph-name="arrow-down-thin" data-tags="arrow-down-thin" d="M811.32 372.68l-288-288c-2.896-2.899-6.899-4.693-11.32-4.693s-8.424 1.793-11.32 4.692v0l-288 288c-2.897 2.897-4.689 6.899-4.689 11.32 0 8.841 7.167 16.009 16.009 16.009 4.421 0 8.423-1.792 11.32-4.689l260.68-260.68v665.36c0 8.837 7.163 16 16 16s16-7.163 16-16v0-665.36l260.68 260.68c2.897 2.897 6.899 4.689 11.32 4.689 8.841 0 16.009-7.167 16.009-16.009 0-4.421-1.792-8.423-4.689-11.32v0z" />
<glyph unicode="&#xe93d;" glyph-name="arrow-elbow-down-left-thin" data-tags="arrow-elbow-down-left-thin" d="M784 832v-576c0-8.837-7.163-16-16-16v0h-537.36l164.68-164.68c2.897-2.897 4.689-6.899 4.689-11.32 0-8.841-7.167-16.009-16.009-16.009-4.421 0-8.423 1.792-11.32 4.689l-192 192c-2.899 2.896-4.693 6.899-4.693 11.32s1.793 8.424 4.692 11.32v0l192 192c2.897 2.897 6.899 4.689 11.32 4.689 8.841 0 16.009-7.167 16.009-16.009 0-4.421-1.792-8.423-4.689-11.32l-164.68-164.68h521.36v560c0 8.837 7.163 16 16 16s16-7.163 16-16v0z" />
<glyph unicode="&#xe93e;" glyph-name="arrow-elbow-down-right-thin" data-tags="arrow-elbow-down-right-thin" d="M843.32 244.68l-192-192c-2.897-2.897-6.899-4.689-11.32-4.689-8.841 0-16.009 7.167-16.009 16.009 0 4.421 1.792 8.423 4.689 11.32l164.68 164.68h-537.36c-8.837 0-16 7.163-16 16v0 576c0 8.837 7.163 16 16 16s16-7.163 16-16v0-560h521.36l-164.68 164.68c-2.897 2.897-4.689 6.899-4.689 11.32 0 8.841 7.167 16.009 16.009 16.009 4.421 0 8.423-1.792 11.32-4.689l192-192c2.899-2.896 4.693-6.899 4.693-11.32s-1.793-8.424-4.692-11.32v0z" />
<glyph unicode="&#xe93f;" glyph-name="arrow-elbow-left-down-thin" data-tags="arrow-elbow-left-down-thin" d="M912 704c0-8.837-7.163-16-16-16v0h-560v-521.36l164.68 164.68c2.897 2.897 6.899 4.689 11.32 4.689 8.841 0 16.009-7.167 16.009-16.009 0-4.421-1.792-8.423-4.689-11.32l-192-192c-2.896-2.899-6.899-4.693-11.32-4.693s-8.424 1.793-11.32 4.692v0l-192 192c-2.897 2.897-4.689 6.899-4.689 11.32 0 8.841 7.167 16.009 16.009 16.009 4.421 0 8.423-1.792 11.32-4.689l164.68-164.68v537.36c0 8.837 7.163 16 16 16v0h576c8.837 0 16-7.163 16-16v0z" />
<glyph unicode="&#xe940;" glyph-name="arrow-elbow-left-thin" data-tags="arrow-elbow-left-thin" d="M939.32 564.68l-384-384c-2.896-2.899-6.899-4.693-11.32-4.693s-8.424 1.793-11.32 4.692v0l-420.68 420.68v-249.36c0-8.837-7.163-16-16-16s-16 7.163-16 16v0 288c0 8.837 7.163 16 16 16v0h288c8.837 0 16-7.163 16-16s-7.163-16-16-16v0h-249.36l409.36-409.36 372.68 372.68c2.897 2.897 6.899 4.689 11.32 4.689 8.841 0 16.009-7.167 16.009-16.009 0-4.421-1.792-8.423-4.689-11.32v0z" />
<glyph unicode="&#xe941;" glyph-name="arrow-elbow-left-up-thin" data-tags="arrow-elbow-left-up-thin" d="M912 192c0-8.837-7.163-16-16-16v0h-576c-8.837 0-16 7.163-16 16v0 537.36l-164.68-164.68c-2.897-2.897-6.899-4.689-11.32-4.689-8.841 0-16.009 7.167-16.009 16.009 0 4.421 1.792 8.423 4.689 11.32v0l192 192c2.896 2.899 6.899 4.693 11.32 4.693s8.424-1.793 11.32-4.692v0l192-192c2.897-2.897 4.689-6.899 4.689-11.32 0-8.841-7.167-16.009-16.009-16.009-4.421 0-8.423 1.792-11.32 4.689l-164.68 164.68v-521.36h560c8.837 0 16-7.163 16-16v0z" />
<glyph unicode="&#xe942;" glyph-name="arrow-elbow-right-down-thin" data-tags="arrow-elbow-right-down-thin" d="M907.32 308.68l-192-192c-2.896-2.899-6.899-4.693-11.32-4.693s-8.424 1.793-11.32 4.692v0l-192 192c-2.897 2.897-4.689 6.899-4.689 11.32 0 8.841 7.167 16.009 16.009 16.009 4.421 0 8.423-1.792 11.32-4.689l164.68-164.68v521.36h-560c-8.837 0-16 7.163-16 16s7.163 16 16 16v0h576c8.837 0 16-7.163 16-16v0-537.36l164.68 164.68c2.897 2.897 6.899 4.689 11.32 4.689 8.841 0 16.009-7.167 16.009-16.009 0-4.421-1.792-8.423-4.689-11.32v0z" />
<glyph unicode="&#xe943;" glyph-name="arrow-elbow-right-thin" data-tags="arrow-elbow-right-thin" d="M944 640v-288c0-8.837-7.163-16-16-16s-16 7.163-16 16v0 249.36l-420.68-420.68c-2.896-2.899-6.899-4.693-11.32-4.693s-8.424 1.793-11.32 4.692v0l-384 384c-2.897 2.897-4.689 6.899-4.689 11.32 0 8.841 7.167 16.009 16.009 16.009 4.421 0 8.423-1.792 11.32-4.689v0l372.68-372.68 409.36 409.36h-249.36c-8.837 0-16 7.163-16 16s7.163 16 16 16v0h288c8.837 0 16-7.163 16-16v0z" />
<glyph unicode="&#xe944;" glyph-name="arrow-elbow-right-up-thin" data-tags="arrow-elbow-right-up-thin" d="M907.32 564.68c-2.896-2.899-6.899-4.693-11.32-4.693s-8.424 1.793-11.32 4.692v0l-164.68 164.68v-537.36c0-8.837-7.163-16-16-16v0h-576c-8.837 0-16 7.163-16 16s7.163 16 16 16v0h560v521.36l-164.68-164.68c-2.897-2.897-6.899-4.689-11.32-4.689-8.841 0-16.009 7.167-16.009 16.009 0 4.421 1.792 8.423 4.689 11.32l192 192c2.896 2.899 6.899 4.693 11.32 4.693s8.424-1.793 11.32-4.692v0l192-192c2.899-2.896 4.693-6.899 4.693-11.32s-1.793-8.424-4.692-11.32v0z" />
<glyph unicode="&#xe945;" glyph-name="arrow-elbow-up-left-thin" data-tags="arrow-elbow-up-left-thin" d="M784 640v-576c0-8.837-7.163-16-16-16s-16 7.163-16 16v0 560h-521.36l164.68-164.68c2.897-2.897 4.689-6.899 4.689-11.32 0-8.841-7.167-16.009-16.009-16.009-4.421 0-8.423 1.792-11.32 4.689l-192 192c-2.899 2.896-4.693 6.899-4.693 11.32s1.793 8.424 4.692 11.32v0l192 192c2.897 2.897 6.899 4.689 11.32 4.689 8.841 0 16.009-7.167 16.009-16.009 0-4.421-1.792-8.423-4.689-11.32l-164.68-164.68h537.36c8.837 0 16-7.163 16-16v0z" />
<glyph unicode="&#xe946;" glyph-name="arrow-elbow-up-right-thin" data-tags="arrow-elbow-up-right-thin" d="M843.32 628.68l-192-192c-2.897-2.897-6.899-4.689-11.32-4.689-8.841 0-16.009 7.167-16.009 16.009 0 4.421 1.792 8.423 4.689 11.32l164.68 164.68h-521.36v-560c0-8.837-7.163-16-16-16s-16 7.163-16 16v0 576c0 8.837 7.163 16 16 16v0h537.36l-164.68 164.68c-2.897 2.897-4.689 6.899-4.689 11.32 0 8.841 7.167 16.009 16.009 16.009 4.421 0 8.423-1.792 11.32-4.689v0l192-192c2.899-2.896 4.693-6.899 4.693-11.32s-1.793-8.424-4.692-11.32v0z" />
<glyph unicode="&#xe947;" glyph-name="arrow-fat-down-thin" data-tags="arrow-fat-down-thin" d="M910.8 422.12c-2.468 5.849-8.155 9.88-14.783 9.88-0.006 0-0.012 0-0.018 0h-175.999v336c0 26.51-21.49 48-48 48v0h-320c-26.51 0-48-21.49-48-48v0-336h-176c-0.004 0-0.008 0-0.013 0-8.837 0-16-7.163-16-16 0-4.421 1.793-8.424 4.692-11.32v0l384-384c2.896-2.899 6.899-4.693 11.32-4.693s8.424 1.793 11.32 4.692v0l384 384c2.901 2.896 4.696 6.9 4.696 11.323 0 2.207-0.447 4.309-1.255 6.222l0.039-0.105zM512 54.64l-345.36 345.36h153.36c8.837 0 16 7.163 16 16v0 352c0 8.837 7.163 16 16 16v0h320c8.837 0 16-7.163 16-16v0-352c0-8.837 7.163-16 16-16v0h153.36z" />
<glyph unicode="&#xe948;" glyph-name="arrow-fat-left-thin" data-tags="arrow-fat-left-thin" d="M832 656h-336v176c0 0.004 0 0.008 0 0.013 0 8.837-7.163 16-16 16-4.421 0-8.424-1.793-11.32-4.692v0l-384-384c-2.899-2.896-4.693-6.899-4.693-11.32s1.793-8.424 4.692-11.32v0l384-384c2.896-2.899 6.899-4.693 11.32-4.693 8.837 0 16 7.163 16 16 0 0.004 0 0.009 0 0.013v-0.001 176h336c26.51 0 48 21.49 48 48v0 320c0 26.51-21.49 48-48 48v0zM848 288c0-8.837-7.163-16-16-16v0h-352c-8.837 0-16-7.163-16-16v0-153.36l-345.36 345.36 345.36 345.36v-153.36c0-8.837 7.163-16 16-16v0h352c8.837 0 16-7.163 16-16v0z" />
<glyph unicode="&#xe949;" glyph-name="arrow-fat-line-down-thin" data-tags="arrow-fat-line-down-thin" d="M910.8 422.12c-2.468 5.849-8.155 9.88-14.783 9.88-0.006 0-0.012 0-0.018 0h-175.999v240c0 8.837-7.163 16-16 16v0h-384c-8.837 0-16-7.163-16-16v0-240h-176c-0.004 0-0.008 0-0.013 0-8.837 0-16-7.163-16-16 0-4.421 1.793-8.424 4.692-11.32v0l384-384c2.896-2.899 6.899-4.693 11.32-4.693s8.424 1.793 11.32 4.692v0l384 384c2.901 2.896 4.696 6.9 4.696 11.323 0 2.207-0.447 4.309-1.255 6.222l0.039-0.105zM512 54.64l-345.36 345.36h153.36c8.837 0 16 7.163 16 16v0 240h352v-240c0-8.837 7.163-16 16-16v0h153.36zM304 800c0 8.837 7.163 16 16 16v0h384c8.837 0 16-7.163 16-16s-7.163-16-16-16v0h-384c-8.837 0-16 7.163-16 16v0z" />
<glyph unicode="&#xe94a;" glyph-name="arrow-fat-line-left-thin" data-tags="arrow-fat-line-left-thin" d="M736 656h-240v176c0 0.004 0 0.008 0 0.013 0 8.837-7.163 16-16 16-4.421 0-8.424-1.793-11.32-4.692v0l-384-384c-2.899-2.896-4.693-6.899-4.693-11.32s1.793-8.424 4.692-11.32v0l384-384c2.896-2.899 6.899-4.693 11.32-4.693 8.837 0 16 7.163 16 16 0 0.004 0 0.009 0 0.013v-0.001 176h240c8.837 0 16 7.163 16 16v0 384c0 8.837-7.163 16-16 16v0zM720 272h-240c-8.837 0-16-7.163-16-16v0-153.36l-345.36 345.36 345.36 345.36v-153.36c0-8.837 7.163-16 16-16v0h240zM880 640v-384c0-8.837-7.163-16-16-16s-16 7.163-16 16v0 384c0 8.837 7.163 16 16 16s16-7.163 16-16v0z" />
<glyph unicode="&#xe94b;" glyph-name="arrow-fat-line-right-thin" data-tags="arrow-fat-line-right-thin" d="M939.32 459.32l-384 384c-2.896 2.899-6.899 4.693-11.32 4.693-8.837 0-16-7.163-16-16 0-0.004 0-0.009 0-0.013v0.001-176h-240c-8.837 0-16-7.163-16-16v0-384c0-8.837 7.163-16 16-16v0h240v-176c0-0.005 0-0.011 0-0.017 0-6.629 4.031-12.316 9.775-14.744l0.105-0.039c1.808-0.769 3.91-1.216 6.117-1.216 4.423 0 8.427 1.795 11.323 4.695v0l384 384c2.899 2.896 4.693 6.899 4.693 11.32s-1.793 8.424-4.692 11.32v0zM560 102.64v153.36c0 8.837-7.163 16-16 16v0h-240v352h240c8.837 0 16 7.163 16 16v0 153.36l345.36-345.36zM176 640v-384c0-8.837-7.163-16-16-16s-16 7.163-16 16v0 384c0 8.837 7.163 16 16 16s16-7.163 16-16v0z" />
<glyph unicode="&#xe94c;" glyph-name="arrow-fat-lines-down-thin" data-tags="arrow-fat-lines-down-thin" d="M910.8 422.12c-2.468 5.849-8.155 9.88-14.783 9.88-0.006 0-0.012 0-0.018 0h-175.999v112c0 8.837-7.163 16-16 16v0h-384c-8.837 0-16-7.163-16-16v0-112h-176c-0.004 0-0.008 0-0.013 0-8.837 0-16-7.163-16-16 0-4.421 1.793-8.424 4.692-11.32v0l384-384c2.896-2.899 6.899-4.693 11.32-4.693s8.424 1.793 11.32 4.692v0l384 384c2.901 2.896 4.696 6.9 4.696 11.323 0 2.207-0.447 4.309-1.255 6.222l0.039-0.105zM512 54.64l-345.36 345.36h153.36c8.837 0 16 7.163 16 16v0 112h352v-112c0-8.837 7.163-16 16-16v0h153.36zM304 800c0 8.837 7.163 16 16 16v0h384c8.837 0 16-7.163 16-16s-7.163-16-16-16v0h-384c-8.837 0-16 7.163-16 16v0zM304 672c0 8.837 7.163 16 16 16v0h384c8.837 0 16-7.163 16-16s-7.163-16-16-16v0h-384c-8.837 0-16 7.163-16 16v0z" />
<glyph unicode="&#xe94d;" glyph-name="arrow-fat-lines-left-thin" data-tags="arrow-fat-lines-left-thin" d="M608 656h-112v176c0 0.004 0 0.008 0 0.013 0 8.837-7.163 16-16 16-4.421 0-8.424-1.793-11.32-4.692v0l-384-384c-2.899-2.896-4.693-6.899-4.693-11.32s1.793-8.424 4.692-11.32v0l384-384c2.896-2.899 6.899-4.693 11.32-4.693 8.837 0 16 7.163 16 16 0 0.004 0 0.009 0 0.013v-0.001 176h112c8.837 0 16 7.163 16 16v0 384c0 8.837-7.163 16-16 16v0zM592 272h-112c-8.837 0-16-7.163-16-16v0-153.36l-345.36 345.36 345.36 345.36v-153.36c0-8.837 7.163-16 16-16v0h112zM880 640v-384c0-8.837-7.163-16-16-16s-16 7.163-16 16v0 384c0 8.837 7.163 16 16 16s16-7.163 16-16v0zM752 640v-384c0-8.837-7.163-16-16-16s-16 7.163-16 16v0 384c0 8.837 7.163 16 16 16s16-7.163 16-16v0z" />
<glyph unicode="&#xe94e;" glyph-name="arrow-fat-lines-right-thin" data-tags="arrow-fat-lines-right-thin" d="M939.32 459.32l-384 384c-2.896 2.899-6.899 4.693-11.32 4.693-8.837 0-16-7.163-16-16 0-0.004 0-0.009 0-0.013v0.001-176h-112c-8.837 0-16-7.163-16-16v0-384c0-8.837 7.163-16 16-16v0h112v-176c0-0.005 0-0.011 0-0.017 0-6.629 4.031-12.316 9.775-14.744l0.105-0.039c1.808-0.769 3.91-1.216 6.117-1.216 4.423 0 8.427 1.795 11.323 4.695v0l384 384c2.899 2.896 4.693 6.899 4.693 11.32s-1.793 8.424-4.692 11.32v0zM560 102.64v153.36c0 8.837-7.163 16-16 16v0h-112v352h112c8.837 0 16 7.163 16 16v0 153.36l345.36-345.36zM176 640v-384c0-8.837-7.163-16-16-16s-16 7.163-16 16v0 384c0 8.837 7.163 16 16 16s16-7.163 16-16v0zM304 640v-384c0-8.837-7.163-16-16-16s-16 7.163-16 16v0 384c0 8.837 7.163 16 16 16s16-7.163 16-16v0z" />
<glyph unicode="&#xe94f;" glyph-name="arrow-fat-lines-up-thin" data-tags="arrow-fat-lines-up-thin" d="M907.32 491.32l-384 384c-2.896 2.899-6.899 4.693-11.32 4.693s-8.424-1.793-11.32-4.692v0l-384-384c-2.899-2.896-4.693-6.899-4.693-11.32 0-8.837 7.163-16 16-16 0.004 0 0.009 0 0.013 0h175.999v-112c0-8.837 7.163-16 16-16v0h384c8.837 0 16 7.163 16 16v0 112h176c0.004 0 0.008 0 0.013 0 8.837 0 16 7.163 16 16 0 4.421-1.793 8.424-4.692 11.32v0zM704 496c-8.837 0-16-7.163-16-16v0-112h-352v112c0 8.837-7.163 16-16 16v0h-153.36l345.36 345.36 345.36-345.36zM720 96c0-8.837-7.163-16-16-16v0h-384c-8.837 0-16 7.163-16 16s7.163 16 16 16v0h384c8.837 0 16-7.163 16-16v0zM720 224c0-8.837-7.163-16-16-16v0h-384c-8.837 0-16 7.163-16 16s7.163 16 16 16v0h384c8.837 0 16-7.163 16-16v0z" />
<glyph unicode="&#xe950;" glyph-name="arrow-fat-line-up-thin" data-tags="arrow-fat-line-up-thin" d="M907.32 491.32l-384 384c-2.896 2.899-6.899 4.693-11.32 4.693s-8.424-1.793-11.32-4.692v0l-384-384c-2.899-2.896-4.693-6.899-4.693-11.32 0-8.837 7.163-16 16-16 0.004 0 0.009 0 0.013 0h175.999v-240c0-8.837 7.163-16 16-16v0h384c8.837 0 16 7.163 16 16v0 240h176c0.004 0 0.008 0 0.013 0 8.837 0 16 7.163 16 16 0 4.421-1.793 8.424-4.692 11.32v0zM704 496c-8.837 0-16-7.163-16-16v0-240h-352v240c0 8.837-7.163 16-16 16v0h-153.36l345.36 345.36 345.36-345.36zM720 96c0-8.837-7.163-16-16-16v0h-384c-8.837 0-16 7.163-16 16s7.163 16 16 16v0h384c8.837 0 16-7.163 16-16v0z" />
<glyph unicode="&#xe951;" glyph-name="arrow-fat-right-thin" data-tags="arrow-fat-right-thin" d="M939.32 459.32l-384 384c-2.896 2.899-6.899 4.693-11.32 4.693-8.837 0-16-7.163-16-16 0-0.004 0-0.009 0-0.013v0.001-176h-336c-26.51 0-48-21.49-48-48v0-320c0-26.51 21.49-48 48-48v0h336v-176c0-0.005 0-0.011 0-0.017 0-6.629 4.031-12.316 9.775-14.744l0.105-0.039c1.808-0.769 3.91-1.216 6.117-1.216 4.423 0 8.427 1.795 11.323 4.695v0l384 384c2.899 2.896 4.693 6.899 4.693 11.32s-1.793 8.424-4.692 11.32v0zM560 102.64v153.36c0 8.837-7.163 16-16 16v0h-352c-8.837 0-16 7.163-16 16v0 320c0 8.837 7.163 16 16 16v0h352c8.837 0 16 7.163 16 16v0 153.36l345.36-345.36z" />
<glyph unicode="&#xe952;" glyph-name="arrow-fat-up-thin" data-tags="arrow-fat-up-thin" d="M907.32 491.32l-384 384c-2.896 2.899-6.899 4.693-11.32 4.693s-8.424-1.793-11.32-4.692v0l-384-384c-2.899-2.896-4.693-6.899-4.693-11.32 0-8.837 7.163-16 16-16 0.004 0 0.009 0 0.013 0h175.999v-336c0-26.51 21.49-48 48-48v0h320c26.51 0 48 21.49 48 48v0 336h176c0.004 0 0.008 0 0.013 0 8.837 0 16 7.163 16 16 0 4.421-1.793 8.424-4.692 11.32v0zM704 496c-8.837 0-16-7.163-16-16v0-352c0-8.837-7.163-16-16-16v0h-320c-8.837 0-16 7.163-16 16v0 352c0 8.837-7.163 16-16 16v0h-153.36l345.36 345.36 345.36-345.36z" />
<glyph unicode="&#xe953;" glyph-name="arrow-left-thin" data-tags="arrow-left-thin" d="M880 448c0-8.837-7.163-16-16-16v0h-665.36l260.68-260.68c2.897-2.897 4.689-6.899 4.689-11.32 0-8.841-7.167-16.009-16.009-16.009-4.421 0-8.423 1.792-11.32 4.689l-288 288c-2.899 2.896-4.693 6.899-4.693 11.32s1.793 8.424 4.692 11.32v0l288 288c2.897 2.897 6.899 4.689 11.32 4.689 8.841 0 16.009-7.167 16.009-16.009 0-4.421-1.792-8.423-4.689-11.32l-260.68-260.68h665.36c8.837 0 16-7.163 16-16v0z" />
<glyph unicode="&#xe954;" glyph-name="arrow-line-down-left-thin" data-tags="arrow-line-down-left-thin" d="M880 800c0-8.837-7.163-16-16-16v0h-704c-8.837 0-16 7.163-16 16s7.163 16 16 16v0h704c8.837 0 16-7.163 16-16v0zM692.68 619.32l-420.68-420.68v345.36c0 8.837-7.163 16-16 16s-16-7.163-16-16v0-384c0-8.837 7.163-16 16-16v0h384c8.837 0 16 7.163 16 16s-7.163 16-16 16v0h-345.36l420.68 420.68c2.897 2.897 4.689 6.899 4.689 11.32 0 8.841-7.167 16.009-16.009 16.009-4.421 0-8.423-1.792-11.32-4.689v0z" />
<glyph unicode="&#xe955;" glyph-name="arrow-line-down-right-thin" data-tags="arrow-line-down-right-thin" d="M880 800c0-8.837-7.163-16-16-16v0h-704c-8.837 0-16 7.163-16 16s7.163 16 16 16v0h704c8.837 0 16-7.163 16-16v0zM768 560c-8.837 0-16-7.163-16-16v0-345.36l-420.68 420.68c-2.897 2.897-6.899 4.689-11.32 4.689-8.841 0-16.009-7.167-16.009-16.009 0-4.421 1.792-8.423 4.689-11.32l420.68-420.68h-345.36c-8.837 0-16-7.163-16-16s7.163-16 16-16v0h384c8.837 0 16 7.163 16 16v0 384c0 8.837-7.163 16-16 16v0z" />
<glyph unicode="&#xe956;" glyph-name="arrow-line-down-thin" data-tags="arrow-line-down-thin" d="M212.68 500.68c-2.897 2.897-4.689 6.899-4.689 11.32 0 8.841 7.167 16.009 16.009 16.009 4.421 0 8.423-1.792 11.32-4.689l260.68-260.68v569.36c0 8.837 7.163 16 16 16s16-7.163 16-16v0-569.36l260.68 260.68c2.897 2.897 6.899 4.689 11.32 4.689 8.841 0 16.009-7.167 16.009-16.009 0-4.421-1.792-8.423-4.689-11.32l-288-288c-2.896-2.899-6.899-4.693-11.32-4.693s-8.424 1.793-11.32 4.692v0zM864 112h-704c-8.837 0-16-7.163-16-16s7.163-16 16-16v0h704c8.837 0 16 7.163 16 16s-7.163 16-16 16v0z" />
<glyph unicode="&#xe957;" glyph-name="arrow-line-left-thin" data-tags="arrow-line-left-thin" d="M912 448c0-8.837-7.163-16-16-16v0h-569.36l260.68-260.68c2.897-2.897 4.689-6.899 4.689-11.32 0-8.841-7.167-16.009-16.009-16.009-4.421 0-8.423 1.792-11.32 4.689l-288 288c-2.899 2.896-4.693 6.899-4.693 11.32s1.793 8.424 4.692 11.32v0l288 288c2.897 2.897 6.899 4.689 11.32 4.689 8.841 0 16.009-7.167 16.009-16.009 0-4.421-1.792-8.423-4.689-11.32l-260.68-260.68h569.36c8.837 0 16-7.163 16-16v0zM160 816c-8.837 0-16-7.163-16-16v0-704c0-8.837 7.163-16 16-16s16 7.163 16 16v0 704c0 8.837-7.163 16-16 16v0z" />
<glyph unicode="&#xe958;" glyph-name="arrow-line-right-thin" data-tags="arrow-line-right-thin" d="M747.32 459.32c2.899-2.896 4.693-6.899 4.693-11.32s-1.793-8.424-4.692-11.32v0l-288-288c-2.897-2.897-6.899-4.689-11.32-4.689-8.841 0-16.009 7.167-16.009 16.009 0 4.421 1.792 8.423 4.689 11.32l260.68 260.68h-569.36c-8.837 0-16 7.163-16 16s7.163 16 16 16v0h569.36l-260.68 260.68c-2.897 2.897-4.689 6.899-4.689 11.32 0 8.841 7.167 16.009 16.009 16.009 4.421 0 8.423-1.792 11.32-4.689v0zM864 816c-8.837 0-16-7.163-16-16v0-704c0-8.837 7.163-16 16-16s16 7.163 16 16v0 704c0 8.837-7.163 16-16 16v0z" />
<glyph unicode="&#xe959;" glyph-name="arrow-line-up-left-thin" data-tags="arrow-line-up-left-thin" d="M880 96c0-8.837-7.163-16-16-16v0h-704c-8.837 0-16 7.163-16 16s7.163 16 16 16v0h704c8.837 0 16-7.163 16-16v0zM256 336c8.837 0 16 7.163 16 16v0 345.36l420.68-420.68c2.897-2.897 6.899-4.689 11.32-4.689 8.841 0 16.009 7.167 16.009 16.009 0 4.421-1.792 8.423-4.689 11.32l-420.68 420.68h345.36c8.837 0 16 7.163 16 16s-7.163 16-16 16v0h-384c-8.837 0-16-7.163-16-16v0-384c0-8.837 7.163-16 16-16v0z" />
<glyph unicode="&#xe95a;" glyph-name="arrow-line-up-right-thin" data-tags="arrow-line-up-right-thin" d="M880 96c0-8.837-7.163-16-16-16v0h-704c-8.837 0-16 7.163-16 16s7.163 16 16 16v0h704c8.837 0 16-7.163 16-16v0zM320 272c0.004 0 0.008 0 0.013 0 4.415 0 8.413 1.788 11.308 4.68v0l420.68 420.68v-345.36c0-8.837 7.163-16 16-16s16 7.163 16 16v0 384c0 8.837-7.163 16-16 16v0h-384c-8.837 0-16-7.163-16-16s7.163-16 16-16v0h345.36l-420.68-420.68c-2.899-2.896-4.693-6.899-4.693-11.32 0-8.837 7.163-16 16-16 0.004 0 0.009 0 0.013 0h-0.001z" />
<glyph unicode="&#xe95b;" glyph-name="arrow-line-up-thin" data-tags="arrow-line-up-thin" d="M811.32 395.32c2.897-2.897 4.689-6.899 4.689-11.32 0-8.841-7.167-16.009-16.009-16.009-4.421 0-8.423 1.792-11.32 4.689l-260.68 260.68v-569.36c0-8.837-7.163-16-16-16s-16 7.163-16 16v0 569.36l-260.68-260.68c-2.897-2.897-6.899-4.689-11.32-4.689-8.841 0-16.009 7.167-16.009 16.009 0 4.421 1.792 8.423 4.689 11.32l288 288c2.896 2.899 6.899 4.693 11.32 4.693s8.424-1.793 11.32-4.692v0zM864 816h-704c-8.837 0-16-7.163-16-16s7.163-16 16-16v0h704c8.837 0 16 7.163 16 16s-7.163 16-16 16v0z" />
<glyph unicode="&#xe95c;" glyph-name="arrow-right-thin" data-tags="arrow-right-thin" d="M875.32 436.68l-288-288c-2.897-2.897-6.899-4.689-11.32-4.689-8.841 0-16.009 7.167-16.009 16.009 0 4.421 1.792 8.423 4.689 11.32l260.68 260.68h-665.36c-8.837 0-16 7.163-16 16s7.163 16 16 16v0h665.36l-260.68 260.68c-2.897 2.897-4.689 6.899-4.689 11.32 0 8.841 7.167 16.009 16.009 16.009 4.421 0 8.423-1.792 11.32-4.689l288-288c2.899-2.896 4.693-6.899 4.693-11.32s-1.793-8.424-4.692-11.32v0z" />
<glyph unicode="&#xe95d;" glyph-name="arrows-clockwise-thin" data-tags="arrows-clockwise-thin" d="M779.32 203.28c2.887-2.894 4.673-6.889 4.673-11.3s-1.785-8.406-4.673-11.3v0c-4-4-102.6-100.68-267.32-100.68-95.72 0-189.4 40.2-270.92 116.32-23.399 21.962-44.727 45.484-64.061 70.62l-1.019 1.38v-140.32c0-8.837-7.163-16-16-16s-16 7.163-16 16v0 192c0 8.837 7.163 16 16 16v0h192c8.837 0 16-7.163 16-16s-7.163-16-16-16v0h-162.36c40-56.24 153.56-192 322.36-192 151 0 243.8 90.4 244.72 91.32 2.892 2.875 6.878 4.653 11.28 4.653 4.421 0 8.424-1.793 11.32-4.692v0zM864 784c-8.837 0-16-7.163-16-16v0-140.28c-20.353 26.516-41.681 50.038-64.767 71.709l-0.313 0.291c-81.52 76.080-175.2 116.28-270.92 116.28-164.72 0-263.2-96.56-267.32-100.68-2.73-2.865-4.41-6.751-4.41-11.031 0-8.837 7.163-16 16-16 4.269 0 8.148 1.672 11.017 4.397l-0.007-0.007c0.92 0.92 93.72 91.32 244.72 91.32 168.8 0 282.52-135.76 322.36-192h-162.36c-8.837 0-16-7.163-16-16s7.163-16 16-16v0h192c8.837 0 16 7.163 16 16v0 192c0 8.837-7.163 16-16 16v0z" />
<glyph unicode="&#xe95e;" glyph-name="arrows-counter-clockwise-thin" data-tags="arrows-counter-clockwise-thin" d="M352 560h-192c-8.837 0-16 7.163-16 16v0 192c0 8.837 7.163 16 16 16s16-7.163 16-16v0-140.28c20.353 26.516 41.681 50.038 64.767 71.709l0.313 0.291c81.52 76.080 175.2 116.28 270.92 116.28 164.72 0 263.2-96.56 267.32-100.68 2.897-2.897 4.689-6.899 4.689-11.32 0-8.841-7.167-16.009-16.009-16.009-4.421 0-8.423 1.792-11.32 4.689v0c-1.68 1.68-94.36 91.32-244.68 91.32-168.8 0-282.48-135.76-322.36-192h162.36c8.837 0 16-7.163 16-16s-7.163-16-16-16v0zM864 336h-192c-8.837 0-16-7.163-16-16s7.163-16 16-16v0h162.36c-40-56.24-153.56-192-322.36-192-150.32 0-243 89.64-244.68 91.32-2.897 2.897-6.899 4.689-11.32 4.689-8.841 0-16.009-7.167-16.009-16.009 0-4.421 1.792-8.423 4.689-11.32v0c4-4 102.6-100.68 267.32-100.68 95.72 0 189.4 40.2 270.92 116.32 23.399 21.962 44.727 45.484 64.061 70.62l1.019 1.38v-140.32c0-8.837 7.163-16 16-16s16 7.163 16 16v0 192c0 8.837-7.163 16-16 16v0z" />
<glyph unicode="&#xe95f;" glyph-name="arrows-down-up-thin" data-tags="arrows-down-up-thin" d="M459.32 267.32c2.899-2.896 4.693-6.899 4.693-11.32s-1.793-8.424-4.692-11.32v0l-128-128c-2.896-2.899-6.899-4.693-11.32-4.693s-8.424 1.793-11.32 4.692v0l-128 128c-2.897 2.897-4.689 6.899-4.689 11.32 0 8.841 7.167 16.009 16.009 16.009 4.421 0 8.423-1.792 11.32-4.689l100.68-100.68v601.36c0 8.837 7.163 16 16 16s16-7.163 16-16v0-601.36l100.68 100.68c2.896 2.899 6.899 4.693 11.32 4.693s8.424-1.793 11.32-4.692v0zM843.32 651.32l-128 128c-2.896 2.899-6.899 4.693-11.32 4.693s-8.424-1.793-11.32-4.692v0l-128-128c-2.897-2.897-4.689-6.899-4.689-11.32 0-8.841 7.167-16.009 16.009-16.009 4.421 0 8.423 1.792 11.32 4.689l100.68 100.68v-601.36c0-8.837 7.163-16 16-16s16 7.163 16 16v0 601.36l100.68-100.68c2.897-2.897 6.899-4.689 11.32-4.689 8.841 0 16.009 7.167 16.009 16.009 0 4.421-1.792 8.423-4.689 11.32v0z" />
<glyph unicode="&#xe960;" glyph-name="arrows-horizontal-thin" data-tags="arrows-horizontal-thin" d="M939.32 436.68l-128-128c-2.897-2.897-6.899-4.689-11.32-4.689-8.841 0-16.009 7.167-16.009 16.009 0 4.421 1.792 8.423 4.689 11.32l100.68 100.68h-754.72l100.68-100.68c2.897-2.897 4.689-6.899 4.689-11.32 0-8.841-7.167-16.009-16.009-16.009-4.421 0-8.423 1.792-11.32 4.689l-128 128c-2.899 2.896-4.693 6.899-4.693 11.32s1.793 8.424 4.692 11.32v0l128 128c2.897 2.897 6.899 4.689 11.32 4.689 8.841 0 16.009-7.167 16.009-16.009 0-4.421-1.792-8.423-4.689-11.32l-100.68-100.68h754.72l-100.68 100.68c-2.897 2.897-4.689 6.899-4.689 11.32 0 8.841 7.167 16.009 16.009 16.009 4.421 0 8.423-1.792 11.32-4.689l128-128c2.899-2.896 4.693-6.899 4.693-11.32s-1.793-8.424-4.692-11.32v0z" />
<glyph unicode="&#xe961;" glyph-name="arrows-in-cardinal-thin" data-tags="arrows-in-cardinal-thin" d="M372.68 692.68c-2.897 2.897-4.689 6.899-4.689 11.32 0 8.841 7.167 16.009 16.009 16.009 4.421 0 8.423-1.792 11.32-4.689l100.68-100.68v249.36c0 8.837 7.163 16 16 16s16-7.163 16-16v0-249.36l100.68 100.68c2.897 2.897 6.899 4.689 11.32 4.689 8.841 0 16.009-7.167 16.009-16.009 0-4.421-1.792-8.423-4.689-11.32l-128-128c-2.896-2.899-6.899-4.693-11.32-4.693s-8.424 1.793-11.32 4.692v0zM523.32 331.32c-2.896 2.899-6.899 4.693-11.32 4.693s-8.424-1.793-11.32-4.692v0l-128-128c-2.897-2.897-4.689-6.899-4.689-11.32 0-8.841 7.167-16.009 16.009-16.009 4.421 0 8.423 1.792 11.32 4.689l100.68 100.68v-249.36c0-8.837 7.163-16 16-16s16 7.163 16 16v0 249.36l100.68-100.68c2.897-2.897 6.899-4.689 11.32-4.689 8.841 0 16.009 7.167 16.009 16.009 0 4.421-1.792 8.423-4.689 11.32v0zM928 464h-249.36l100.68 100.68c2.897 2.897 4.689 6.899 4.689 11.32 0 8.841-7.167 16.009-16.009 16.009-4.421 0-8.423-1.792-11.32-4.689l-128-128c-2.899-2.896-4.693-6.899-4.693-11.32s1.793-8.424 4.692-11.32v0l128-128c2.897-2.897 6.899-4.689 11.32-4.689 8.841 0 16.009 7.167 16.009 16.009 0 4.421-1.792 8.423-4.689 11.32l-100.68 100.68h249.36c8.837 0 16 7.163 16 16s-7.163 16-16 16v0zM395.32 459.32l-128 128c-2.897 2.897-6.899 4.689-11.32 4.689-8.841 0-16.009-7.167-16.009-16.009 0-4.421 1.792-8.423 4.689-11.32l100.68-100.68h-249.36c-8.837 0-16-7.163-16-16s7.163-16 16-16v0h249.36l-100.68-100.68c-2.897-2.897-4.689-6.899-4.689-11.32 0-8.841 7.167-16.009 16.009-16.009 4.421 0 8.423 1.792 11.32 4.689l128 128c2.899 2.896 4.693 6.899 4.693 11.32s-1.793 8.424-4.692 11.32v0z" />
<glyph unicode="&#xe962;" glyph-name="arrows-in-line-horizontal-thin" data-tags="arrows-in-line-horizontal-thin" d="M528 800v-704c0-8.837-7.163-16-16-16s-16 7.163-16 16v0 704c0 8.837 7.163 16 16 16s16-7.163 16-16v0zM267.32 587.32c-2.897 2.897-6.899 4.689-11.32 4.689-8.841 0-16.009-7.167-16.009-16.009 0-4.421 1.792-8.423 4.689-11.32l100.68-100.68h-281.36c-8.837 0-16-7.163-16-16s7.163-16 16-16v0h281.36l-100.68-100.68c-2.897-2.897-4.689-6.899-4.689-11.32 0-8.841 7.167-16.009 16.009-16.009 4.421 0 8.423 1.792 11.32 4.689l128 128c2.899 2.896 4.693 6.899 4.693 11.32s-1.793 8.424-4.692 11.32v0zM960 464h-281.36l100.68 100.68c2.897 2.897 4.689 6.899 4.689 11.32 0 8.841-7.167 16.009-16.009 16.009-4.421 0-8.423-1.792-11.32-4.689l-128-128c-2.899-2.896-4.693-6.899-4.693-11.32s1.793-8.424 4.692-11.32v0l128-128c2.897-2.897 6.899-4.689 11.32-4.689 8.841 0 16.009 7.167 16.009 16.009 0 4.421-1.792 8.423-4.689 11.32l-100.68 100.68h281.36c8.837 0 16 7.163 16 16s-7.163 16-16 16v0z" />
<glyph unicode="&#xe963;" glyph-name="arrows-in-line-vertical-thin" data-tags="arrows-in-line-vertical-thin" d="M880 448c0-8.837-7.163-16-16-16v0h-704c-8.837 0-16 7.163-16 16s7.163 16 16 16v0h704c8.837 0 16-7.163 16-16v0zM500.68 564.68c2.896-2.899 6.899-4.693 11.32-4.693s8.424 1.793 11.32 4.692v0l128 128c2.897 2.897 4.689 6.899 4.689 11.32 0 8.841-7.167 16.009-16.009 16.009-4.421 0-8.423-1.792-11.32-4.689l-100.68-100.68v281.36c0 8.837-7.163 16-16 16s-16-7.163-16-16v0-281.36l-100.68 100.68c-2.897 2.897-6.899 4.689-11.32 4.689-8.841 0-16.009-7.167-16.009-16.009 0-4.421 1.792-8.423 4.689-11.32v0zM523.32 331.32c-2.896 2.899-6.899 4.693-11.32 4.693s-8.424-1.793-11.32-4.692v0l-128-128c-2.897-2.897-4.689-6.899-4.689-11.32 0-8.841 7.167-16.009 16.009-16.009 4.421 0 8.423 1.792 11.32 4.689l100.68 100.68v-281.36c0-8.837 7.163-16 16-16s16 7.163 16 16v0 281.36l100.68-100.68c2.897-2.897 6.899-4.689 11.32-4.689 8.841 0 16.009 7.167 16.009 16.009 0 4.421-1.792 8.423-4.689 11.32v0z" />
<glyph unicode="&#xe964;" glyph-name="arrows-in-simple-thin" data-tags="arrows-in-simple-thin" d="M843.32 756.68l-228.68-228.68h153.36c8.837 0 16-7.163 16-16s-7.163-16-16-16v0h-192c-8.837 0-16 7.163-16 16v0 192c0 8.837 7.163 16 16 16s16-7.163 16-16v0-153.36l228.68 228.68c2.897 2.897 6.899 4.689 11.32 4.689 8.841 0 16.009-7.167 16.009-16.009 0-4.421-1.792-8.423-4.689-11.32v0zM448 400h-192c-8.837 0-16-7.163-16-16s7.163-16 16-16v0h153.36l-228.68-228.68c-2.897-2.897-4.689-6.899-4.689-11.32 0-8.841 7.167-16.009 16.009-16.009 4.421 0 8.423 1.792 11.32 4.689l228.68 228.68v-153.36c0-8.837 7.163-16 16-16s16 7.163 16 16v0 192c0 8.837-7.163 16-16 16v0z" />
<glyph unicode="&#xe965;" glyph-name="arrows-in-thin" data-tags="arrows-in-thin" d="M592 544v160c0 8.837 7.163 16 16 16s16-7.163 16-16v0-121.36l196.68 196.68c2.897 2.897 6.899 4.689 11.32 4.689 8.841 0 16.009-7.167 16.009-16.009 0-4.421-1.792-8.423-4.689-11.32l-196.68-196.68h121.36c8.837 0 16-7.163 16-16s-7.163-16-16-16v0h-160c-8.837 0-16 7.163-16 16v0zM416 368h-160c-8.837 0-16-7.163-16-16s7.163-16 16-16v0h121.36l-196.68-196.68c-2.897-2.897-4.689-6.899-4.689-11.32 0-8.841 7.167-16.009 16.009-16.009 4.421 0 8.423 1.792 11.32 4.689l196.68 196.68v-121.36c0-8.837 7.163-16 16-16s16 7.163 16 16v0 160c0 8.837-7.163 16-16 16v0zM646.64 336h121.36c8.837 0 16 7.163 16 16s-7.163 16-16 16v0h-160c-8.837 0-16-7.163-16-16v0-160c0-8.837 7.163-16 16-16s16 7.163 16 16v0 121.36l196.68-196.68c2.897-2.897 6.899-4.689 11.32-4.689 8.841 0 16.009 7.167 16.009 16.009 0 4.421-1.792 8.423-4.689 11.32v0zM416 720c-8.837 0-16-7.163-16-16v0-121.36l-196.68 196.68c-2.897 2.897-6.899 4.689-11.32 4.689-8.841 0-16.009-7.167-16.009-16.009 0-4.421 1.792-8.423 4.689-11.32l196.68-196.68h-121.36c-8.837 0-16-7.163-16-16s7.163-16 16-16v0h160c8.837 0 16 7.163 16 16v0 160c0 8.837-7.163 16-16 16v0z" />
<glyph unicode="&#xe966;" glyph-name="arrows-left-right-thin" data-tags="arrows-left-right-thin" d="M843.32 267.32c2.899-2.896 4.693-6.899 4.693-11.32s-1.793-8.424-4.692-11.32v0l-128-128c-2.897-2.897-6.899-4.689-11.32-4.689-8.841 0-16.009 7.167-16.009 16.009 0 4.421 1.792 8.423 4.689 11.32l100.68 100.68h-601.36c-8.837 0-16 7.163-16 16s7.163 16 16 16v0h601.36l-100.68 100.68c-2.897 2.897-4.689 6.899-4.689 11.32 0 8.841 7.167 16.009 16.009 16.009 4.421 0 8.423-1.792 11.32-4.689v0zM308.68 500.68c2.897-2.897 6.899-4.689 11.32-4.689 8.841 0 16.009 7.167 16.009 16.009 0 4.421-1.792 8.423-4.689 11.32l-100.68 100.68h601.36c8.837 0 16 7.163 16 16s-7.163 16-16 16v0h-601.36l100.68 100.68c2.897 2.897 4.689 6.899 4.689 11.32 0 8.841-7.167 16.009-16.009 16.009-4.421 0-8.423-1.792-11.32-4.689l-128-128c-2.899-2.896-4.693-6.899-4.693-11.32s1.793-8.424 4.692-11.32v0z" />
<glyph unicode="&#xe967;" glyph-name="arrows-merge-thin" data-tags="arrows-merge-thin" d="M752 800v-256c0-0.004 0-0.008 0-0.013 0-4.415-1.788-8.413-4.68-11.308v0l-219.32-219.32v-242.72l100.68 100.68c2.897 2.897 6.899 4.689 11.32 4.689 8.841 0 16.009-7.167 16.009-16.009 0-4.421-1.792-8.423-4.689-11.32l-128-128c-2.896-2.899-6.899-4.693-11.32-4.693s-8.424 1.793-11.32 4.692v0l-128 128c-2.897 2.897-4.689 6.899-4.689 11.32 0 8.841 7.167 16.009 16.009 16.009 4.421 0 8.423-1.792 11.32-4.689l100.68-100.68v242.72l-219.32 219.32c-2.892 2.895-4.68 6.892-4.68 11.307 0 0.004 0 0.009 0 0.013v-0.001 256c0 8.837 7.163 16 16 16s16-7.163 16-16v0-249.36l208-208 208 208v249.36c0 8.837 7.163 16 16 16s16-7.163 16-16v0z" />
<glyph unicode="&#xe968;" glyph-name="arrows-out-cardinal-thin" data-tags="arrows-out-cardinal-thin" d="M372.68 724.68c-2.899 2.896-4.693 6.899-4.693 11.32s1.793 8.424 4.692 11.32v0l128 128c2.896 2.899 6.899 4.693 11.32 4.693s8.424-1.793 11.32-4.692v0l128-128c2.897-2.897 4.689-6.899 4.689-11.32 0-8.841-7.167-16.009-16.009-16.009-4.421 0-8.423 1.792-11.32 4.689l-100.68 100.68v-249.36c0-8.837-7.163-16-16-16s-16 7.163-16 16v0 249.36l-100.68-100.68c-2.896-2.899-6.899-4.693-11.32-4.693s-8.424 1.793-11.32 4.692v0zM628.68 171.32l-100.68-100.68v249.36c0 8.837-7.163 16-16 16s-16-7.163-16-16v0-249.36l-100.68 100.68c-2.897 2.897-6.899 4.689-11.32 4.689-8.841 0-16.009-7.167-16.009-16.009 0-4.421 1.792-8.423 4.689-11.32l128-128c2.896-2.899 6.899-4.693 11.32-4.693s8.424 1.793 11.32 4.692v0l128 128c2.897 2.897 4.689 6.899 4.689 11.32 0 8.841-7.167 16.009-16.009 16.009-4.421 0-8.423-1.792-11.32-4.689v0zM939.32 459.32l-128 128c-2.897 2.897-6.899 4.689-11.32 4.689-8.841 0-16.009-7.167-16.009-16.009 0-4.421 1.792-8.423 4.689-11.32l100.68-100.68h-249.36c-8.837 0-16-7.163-16-16s7.163-16 16-16v0h249.36l-100.68-100.68c-2.897-2.897-4.689-6.899-4.689-11.32 0-8.841 7.167-16.009 16.009-16.009 4.421 0 8.423 1.792 11.32 4.689l128 128c2.899 2.896 4.693 6.899 4.693 11.32s-1.793 8.424-4.692 11.32v0zM134.64 432h249.36c8.837 0 16 7.163 16 16s-7.163 16-16 16v0h-249.36l100.68 100.68c2.897 2.897 4.689 6.899 4.689 11.32 0 8.841-7.167 16.009-16.009 16.009-4.421 0-8.423-1.792-11.32-4.689l-128-128c-2.899-2.896-4.693-6.899-4.693-11.32s1.793-8.424 4.692-11.32v0l128-128c2.897-2.897 6.899-4.689 11.32-4.689 8.841 0 16.009 7.167 16.009 16.009 0 4.421-1.792 8.423-4.689 11.32v0z" />
<glyph unicode="&#xe969;" glyph-name="arrows-out-line-horizontal-thin" data-tags="arrows-out-line-horizontal-thin" d="M528 800v-704c0-8.837-7.163-16-16-16s-16 7.163-16 16v0 704c0 8.837 7.163 16 16 16s16-7.163 16-16v0zM384 464h-281.36l100.68 100.68c2.897 2.897 4.689 6.899 4.689 11.32 0 8.841-7.167 16.009-16.009 16.009-4.421 0-8.423-1.792-11.32-4.689l-128-128c-2.899-2.896-4.693-6.899-4.693-11.32s1.793-8.424 4.692-11.32v0l128-128c2.897-2.897 6.899-4.689 11.32-4.689 8.841 0 16.009 7.167 16.009 16.009 0 4.421-1.792 8.423-4.689 11.32l-100.68 100.68h281.36c8.837 0 16 7.163 16 16s-7.163 16-16 16v0zM971.32 459.32l-128 128c-2.897 2.897-6.899 4.689-11.32 4.689-8.841 0-16.009-7.167-16.009-16.009 0-4.421 1.792-8.423 4.689-11.32l100.68-100.68h-281.36c-8.837 0-16-7.163-16-16s7.163-16 16-16v0h281.36l-100.68-100.68c-2.897-2.897-4.689-6.899-4.689-11.32 0-8.841 7.167-16.009 16.009-16.009 4.421 0 8.423 1.792 11.32 4.689l128 128c2.899 2.896 4.693 6.899 4.693 11.32s-1.793 8.424-4.692 11.32v0z" />
<glyph unicode="&#xe96a;" glyph-name="arrows-out-line-vertical-thin" data-tags="arrows-out-line-vertical-thin" d="M880 448c0-8.837-7.163-16-16-16v0h-704c-8.837 0-16 7.163-16 16s7.163 16 16 16v0h704c8.837 0 16-7.163 16-16v0zM395.32 756.68l100.68 100.68v-281.36c0-8.837 7.163-16 16-16s16 7.163 16 16v0 281.36l100.68-100.68c2.897-2.897 6.899-4.689 11.32-4.689 8.841 0 16.009 7.167 16.009 16.009 0 4.421-1.792 8.423-4.689 11.32l-128 128c-2.896 2.899-6.899 4.693-11.32 4.693s-8.424-1.793-11.32-4.692v0l-128-128c-2.897-2.897-4.689-6.899-4.689-11.32 0-8.841 7.167-16.009 16.009-16.009 4.421 0 8.423 1.792 11.32 4.689v0zM628.68 139.32l-100.68-100.68v281.36c0 8.837-7.163 16-16 16s-16-7.163-16-16v0-281.36l-100.68 100.68c-2.897 2.897-6.899 4.689-11.32 4.689-8.841 0-16.009-7.167-16.009-16.009 0-4.421 1.792-8.423 4.689-11.32l128-128c2.896-2.899 6.899-4.693 11.32-4.693s8.424 1.793 11.32 4.692v0l128 128c2.897 2.897 4.689 6.899 4.689 11.32 0 8.841-7.167 16.009-16.009 16.009-4.421 0-8.423-1.792-11.32-4.689v0z" />
<glyph unicode="&#xe96b;" glyph-name="arrows-out-simple-thin" data-tags="arrows-out-simple-thin" d="M848 768v-192c0-8.837-7.163-16-16-16s-16 7.163-16 16v0 153.36l-228.68-228.68c-2.897-2.897-6.899-4.689-11.32-4.689-8.841 0-16.009 7.167-16.009 16.009 0 4.421 1.792 8.423 4.689 11.32l228.68 228.68h-153.36c-8.837 0-16 7.163-16 16s7.163 16 16 16v0h192c8.837 0 16-7.163 16-16v0zM436.68 395.32l-228.68-228.68v153.36c0 8.837-7.163 16-16 16s-16-7.163-16-16v0-192c0-8.837 7.163-16 16-16v0h192c8.837 0 16 7.163 16 16s-7.163 16-16 16v0h-153.36l228.68 228.68c2.897 2.897 4.689 6.899 4.689 11.32 0 8.841-7.167 16.009-16.009 16.009-4.421 0-8.423-1.792-11.32-4.689v0z" />
<glyph unicode="&#xe96c;" glyph-name="arrows-out-thin" data-tags="arrows-out-thin" d="M848 768v-192c0-8.837-7.163-16-16-16s-16 7.163-16 16v0 153.36l-196.68-196.68c-2.897-2.897-6.899-4.689-11.32-4.689-8.841 0-16.009 7.167-16.009 16.009 0 4.421 1.792 8.423 4.689 11.32l196.68 196.68h-153.36c-8.837 0-16 7.163-16 16s7.163 16 16 16v0h192c8.837 0 16-7.163 16-16v0zM404.68 363.32l-196.68-196.68v153.36c0 8.837-7.163 16-16 16s-16-7.163-16-16v0-192c0-8.837 7.163-16 16-16v0h192c8.837 0 16 7.163 16 16s-7.163 16-16 16v0h-153.36l196.68 196.68c2.897 2.897 4.689 6.899 4.689 11.32 0 8.841-7.167 16.009-16.009 16.009-4.421 0-8.423-1.792-11.32-4.689v0zM832 336c-8.837 0-16-7.163-16-16v0-153.36l-196.68 196.68c-2.897 2.897-6.899 4.689-11.32 4.689-8.841 0-16.009-7.167-16.009-16.009 0-4.421 1.792-8.423 4.689-11.32l196.68-196.68h-153.36c-8.837 0-16-7.163-16-16s7.163-16 16-16v0h192c8.837 0 16 7.163 16 16v0 192c0 8.837-7.163 16-16 16v0zM230.64 752h153.36c8.837 0 16 7.163 16 16s-7.163 16-16 16v0h-192c-8.837 0-16-7.163-16-16v0-192c0-8.837 7.163-16 16-16s16 7.163 16 16v0 153.36l196.68-196.68c2.897-2.897 6.899-4.689 11.32-4.689 8.841 0 16.009 7.167 16.009 16.009 0 4.421-1.792 8.423-4.689 11.32v0z" />
<glyph unicode="&#xe96d;" glyph-name="arrow-square-down-left-thin" data-tags="arrow-square-down-left-thin" d="M832 816h-640c-26.51 0-48-21.49-48-48v0-640c0-26.51 21.49-48 48-48v0h640c26.51 0 48 21.49 48 48v0 640c0 26.51-21.49 48-48 48v0zM848 128c0-8.837-7.163-16-16-16v0h-640c-8.837 0-16 7.163-16 16v0 640c0 8.837 7.163 16 16 16v0h640c8.837 0 16-7.163 16-16v0zM651.32 587.32c2.899-2.896 4.693-6.899 4.693-11.32s-1.793-8.424-4.692-11.32v0l-228.68-228.68h153.36c8.837 0 16-7.163 16-16s-7.163-16-16-16v0h-192c-8.837 0-16 7.163-16 16v0 192c0 8.837 7.163 16 16 16s16-7.163 16-16v0-153.36l228.68 228.68c2.896 2.899 6.899 4.693 11.32 4.693s8.424-1.793 11.32-4.692v0z" />
<glyph unicode="&#xe96e;" glyph-name="arrow-square-down-right-thin" data-tags="arrow-square-down-right-thin" d="M832 816h-640c-26.51 0-48-21.49-48-48v0-640c0-26.51 21.49-48 48-48v0h640c26.51 0 48 21.49 48 48v0 640c0 26.51-21.49 48-48 48v0zM848 128c0-8.837-7.163-16-16-16v0h-640c-8.837 0-16 7.163-16 16v0 640c0 8.837 7.163 16 16 16v0h640c8.837 0 16-7.163 16-16v0zM656 512v-192c0-8.837-7.163-16-16-16v0h-192c-8.837 0-16 7.163-16 16s7.163 16 16 16v0h153.36l-228.68 228.68c-2.897 2.897-4.689 6.899-4.689 11.32 0 8.841 7.167 16.009 16.009 16.009 4.421 0 8.423-1.792 11.32-4.689l228.68-228.68v153.36c0 8.837 7.163 16 16 16s16-7.163 16-16v0z" />
<glyph unicode="&#xe96f;" glyph-name="arrow-square-down-thin" data-tags="arrow-square-down-thin" d="M832 816h-640c-26.51 0-48-21.49-48-48v0-640c0-26.51 21.49-48 48-48v0h640c26.51 0 48 21.49 48 48v0 640c0 26.51-21.49 48-48 48v0zM848 128c0-8.837-7.163-16-16-16v0h-640c-8.837 0-16 7.163-16 16v0 640c0 8.837 7.163 16 16 16v0h640c8.837 0 16-7.163 16-16v0zM651.32 427.32c2.899-2.896 4.693-6.899 4.693-11.32s-1.793-8.424-4.692-11.32v0l-128-128c-2.896-2.899-6.899-4.693-11.32-4.693s-8.424 1.793-11.32 4.692v0l-128 128c-2.897 2.897-4.689 6.899-4.689 11.32 0 8.841 7.167 16.009 16.009 16.009 4.421 0 8.423-1.792 11.32-4.689l100.68-100.68v281.36c0 8.837 7.163 16 16 16s16-7.163 16-16v0-281.36l100.68 100.68c2.896 2.899 6.899 4.693 11.32 4.693s8.424-1.793 11.32-4.692v0z" />
<glyph unicode="&#xe970;" glyph-name="arrow-square-in-thin" data-tags="arrow-square-in-thin" d="M496 416v-256c0-8.837-7.163-16-16-16s-16 7.163-16 16v0 217.36l-292.68-292.68c-2.897-2.897-6.899-4.689-11.32-4.689-8.841 0-16.009 7.167-16.009 16.009 0 4.421 1.792 8.423 4.689 11.32l292.68 292.68h-217.36c-8.837 0-16 7.163-16 16s7.163 16 16 16v0h256c8.837 0 16-7.163 16-16v0zM832 816h-512c-26.51 0-48-21.49-48-48v0-192c0-8.837 7.163-16 16-16s16 7.163 16 16v0 192c0 8.837 7.163 16 16 16v0h512c8.837 0 16-7.163 16-16v0-512c0-8.837-7.163-16-16-16v0h-192c-8.837 0-16-7.163-16-16s7.163-16 16-16v0h192c26.51 0 48 21.49 48 48v0 512c0 26.51-21.49 48-48 48v0z" />
<glyph unicode="&#xe971;" glyph-name="arrow-square-left-thin" data-tags="arrow-square-left-thin" d="M832 816h-640c-26.51 0-48-21.49-48-48v0-640c0-26.51 21.49-48 48-48v0h640c26.51 0 48 21.49 48 48v0 640c0 26.51-21.49 48-48 48v0zM848 128c0-8.837-7.163-16-16-16v0h-640c-8.837 0-16 7.163-16 16v0 640c0 8.837 7.163 16 16 16v0h640c8.837 0 16-7.163 16-16v0zM688 448c0-8.837-7.163-16-16-16v0h-281.36l100.68-100.68c2.897-2.897 4.689-6.899 4.689-11.32 0-8.841-7.167-16.009-16.009-16.009-4.421 0-8.423 1.792-11.32 4.689l-128 128c-2.899 2.896-4.693 6.899-4.693 11.32s1.793 8.424 4.692 11.32v0l128 128c2.897 2.897 6.899 4.689 11.32 4.689 8.841 0 16.009-7.167 16.009-16.009 0-4.421-1.792-8.423-4.689-11.32l-100.68-100.68h281.36c8.837 0 16-7.163 16-16v0z" />
<glyph unicode="&#xe972;" glyph-name="arrow-square-out-thin" data-tags="arrow-square-out-thin" d="M880 544c0-8.837-7.163-16-16-16s-16 7.163-16 16v0 217.36l-292.64-292.68c-2.897-2.897-6.899-4.689-11.32-4.689-8.841 0-16.009 7.167-16.009 16.009 0 4.421 1.792 8.423 4.689 11.32l292.64 292.68h-217.36c-8.837 0-16 7.163-16 16s7.163 16 16 16v0h256c8.837 0 16-7.163 16-16v0zM736 432c-8.837 0-16-7.163-16-16v0-288c0-8.837-7.163-16-16-16v0h-512c-8.837 0-16 7.163-16 16v0 512c0 8.837 7.163 16 16 16v0h288c8.837 0 16 7.163 16 16s-7.163 16-16 16v0h-288c-26.51 0-48-21.49-48-48v0-512c0-26.51 21.49-48 48-48v0h512c26.51 0 48 21.49 48 48v0 288c0 8.837-7.163 16-16 16v0z" />
<glyph unicode="&#xe973;" glyph-name="arrow-square-right-thin" data-tags="arrow-square-right-thin" d="M832 816h-640c-26.51 0-48-21.49-48-48v0-640c0-26.51 21.49-48 48-48v0h640c26.51 0 48 21.49 48 48v0 640c0 26.51-21.49 48-48 48v0zM848 128c0-8.837-7.163-16-16-16v0h-640c-8.837 0-16 7.163-16 16v0 640c0 8.837 7.163 16 16 16v0h640c8.837 0 16-7.163 16-16v0zM683.32 459.32c2.899-2.896 4.693-6.899 4.693-11.32s-1.793-8.424-4.692-11.32v0l-128-128c-2.897-2.897-6.899-4.689-11.32-4.689-8.841 0-16.009 7.167-16.009 16.009 0 4.421 1.792 8.423 4.689 11.32l100.68 100.68h-281.36c-8.837 0-16 7.163-16 16s7.163 16 16 16v0h281.36l-100.68 100.68c-2.897 2.897-4.689 6.899-4.689 11.32 0 8.841 7.167 16.009 16.009 16.009 4.421 0 8.423-1.792 11.32-4.689v0z" />
<glyph unicode="&#xe974;" glyph-name="arrow-square-up-left-thin" data-tags="arrow-square-up-left-thin" d="M832 816h-640c-26.51 0-48-21.49-48-48v0-640c0-26.51 21.49-48 48-48v0h640c26.51 0 48 21.49 48 48v0 640c0 26.51-21.49 48-48 48v0zM848 128c0-8.837-7.163-16-16-16v0h-640c-8.837 0-16 7.163-16 16v0 640c0 8.837 7.163 16 16 16v0h640c8.837 0 16-7.163 16-16v0zM651.32 331.32c2.897-2.897 4.689-6.899 4.689-11.32 0-8.841-7.167-16.009-16.009-16.009-4.421 0-8.423 1.792-11.32 4.689l-228.68 228.68v-153.36c0-8.837-7.163-16-16-16s-16 7.163-16 16v0 192c0 8.837 7.163 16 16 16v0h192c8.837 0 16-7.163 16-16s-7.163-16-16-16v0h-153.36z" />
<glyph unicode="&#xe975;" glyph-name="arrow-square-up-right-thin" data-tags="arrow-square-up-right-thin" d="M832 816h-640c-26.51 0-48-21.49-48-48v0-640c0-26.51 21.49-48 48-48v0h640c26.51 0 48 21.49 48 48v0 640c0 26.51-21.49 48-48 48v0zM848 128c0-8.837-7.163-16-16-16v0h-640c-8.837 0-16 7.163-16 16v0 640c0 8.837 7.163 16 16 16v0h640c8.837 0 16-7.163 16-16v0zM656 576v-192c0-8.837-7.163-16-16-16s-16 7.163-16 16v0 153.36l-228.68-228.68c-2.897-2.897-6.899-4.689-11.32-4.689-8.841 0-16.009 7.167-16.009 16.009 0 4.421 1.792 8.423 4.689 11.32l228.68 228.68h-153.36c-8.837 0-16 7.163-16 16s7.163 16 16 16v0h192c8.837 0 16-7.163 16-16v0z" />
<glyph unicode="&#xe976;" glyph-name="arrow-square-up-thin" data-tags="arrow-square-up-thin" d="M832 816h-640c-26.51 0-48-21.49-48-48v0-640c0-26.51 21.49-48 48-48v0h640c26.51 0 48 21.49 48 48v0 640c0 26.51-21.49 48-48 48v0zM848 128c0-8.837-7.163-16-16-16v0h-640c-8.837 0-16 7.163-16 16v0 640c0 8.837 7.163 16 16 16v0h640c8.837 0 16-7.163 16-16v0zM651.32 491.32c2.897-2.897 4.689-6.899 4.689-11.32 0-8.841-7.167-16.009-16.009-16.009-4.421 0-8.423 1.792-11.32 4.689l-100.68 100.68v-281.36c0-8.837-7.163-16-16-16s-16 7.163-16 16v0 281.36l-100.68-100.68c-2.897-2.897-6.899-4.689-11.32-4.689-8.841 0-16.009 7.167-16.009 16.009 0 4.421 1.792 8.423 4.689 11.32l128 128c2.896 2.899 6.899 4.693 11.32 4.693s8.424-1.793 11.32-4.692v0z" />
<glyph unicode="&#xe977;" glyph-name="arrows-split-thin" data-tags="arrows-split-thin" d="M907.32 212.68l-128-128c-2.896-2.899-6.899-4.693-11.32-4.693s-8.424 1.793-11.32 4.692v0l-128 128c-2.897 2.897-4.689 6.899-4.689 11.32 0 8.841 7.167 16.009 16.009 16.009 4.421 0 8.423-1.792 11.32-4.689l100.68-100.68v274.72l-240 240-240-240v-274.72l100.68 100.68c2.897 2.897 6.899 4.689 11.32 4.689 8.841 0 16.009-7.167 16.009-16.009 0-4.421-1.792-8.423-4.689-11.32l-128-128c-2.896-2.899-6.899-4.693-11.32-4.693s-8.424 1.793-11.32 4.692v0l-128 128c-2.897 2.897-4.689 6.899-4.689 11.32 0 8.841 7.167 16.009 16.009 16.009 4.421 0 8.423-1.792 11.32-4.689l100.68-100.68v281.36c0 0.004 0 0.008 0 0.013 0 4.415 1.788 8.413 4.68 11.308v0l251.32 251.32v185.36c0 8.837 7.163 16 16 16s16-7.163 16-16v0-185.36l251.32-251.32c2.892-2.895 4.68-6.892 4.68-11.307 0-0.004 0-0.009 0-0.013v0.001-281.36l100.68 100.68c2.897 2.897 6.899 4.689 11.32 4.689 8.841 0 16.009-7.167 16.009-16.009 0-4.421-1.792-8.423-4.689-11.32v0z" />
<glyph unicode="&#xe978;" glyph-name="arrows-vertical-thin" data-tags="arrows-vertical-thin" d="M651.32 171.32c2.899-2.896 4.693-6.899 4.693-11.32s-1.793-8.424-4.692-11.32v0l-128-128c-2.896-2.899-6.899-4.693-11.32-4.693s-8.424 1.793-11.32 4.692v0l-128 128c-2.897 2.897-4.689 6.899-4.689 11.32 0 8.841 7.167 16.009 16.009 16.009 4.421 0 8.423-1.792 11.32-4.689l100.68-100.68v754.72l-100.68-100.68c-2.897-2.897-6.899-4.689-11.32-4.689-8.841 0-16.009 7.167-16.009 16.009 0 4.421 1.792 8.423 4.689 11.32l128 128c2.896 2.899 6.899 4.693 11.32 4.693s8.424-1.793 11.32-4.692v0l128-128c2.897-2.897 4.689-6.899 4.689-11.32 0-8.841-7.167-16.009-16.009-16.009-4.421 0-8.423 1.792-11.32 4.689l-100.68 100.68v-754.72l100.68 100.68c2.896 2.899 6.899 4.693 11.32 4.693s8.424-1.793 11.32-4.692v0z" />
<glyph unicode="&#xe979;" glyph-name="arrow-u-down-left-thin" data-tags="arrow-u-down-left-thin" d="M912 512c-0.159-132.484-107.516-239.841-239.984-240h-505.376l164.68-164.68c2.897-2.897 4.689-6.899 4.689-11.32 0-8.841-7.167-16.009-16.009-16.009-4.421 0-8.423 1.792-11.32 4.689l-192 192c-2.899 2.896-4.693 6.899-4.693 11.32s1.793 8.424 4.692 11.32v0l192 192c2.897 2.897 6.899 4.689 11.32 4.689 8.841 0 16.009-7.167 16.009-16.009 0-4.421-1.792-8.423-4.689-11.32l-164.68-164.68h505.36c114.875 0 208 93.125 208 208s-93.125 208-208 208v0h-352c-8.837 0-16 7.163-16 16s7.163 16 16 16v0h352c132.484-0.159 239.841-107.516 240-239.984v-0.016z" />
<glyph unicode="&#xe97a;" glyph-name="arrow-u-down-right-thin" data-tags="arrow-u-down-right-thin" d="M907.32 276.68l-192-192c-2.897-2.897-6.899-4.689-11.32-4.689-8.841 0-16.009 7.167-16.009 16.009 0 4.421 1.792 8.423 4.689 11.32l164.68 164.68h-505.36c-132.548 0-240 107.452-240 240s107.452 240 240 240v0h352c8.837 0 16-7.163 16-16s-7.163-16-16-16v0h-352c-114.875 0-208-93.125-208-208s93.125-208 208-208v0h505.36l-164.68 164.68c-2.897 2.897-4.689 6.899-4.689 11.32 0 8.841 7.167 16.009 16.009 16.009 4.421 0 8.423-1.792 11.32-4.689l192-192c2.899-2.896 4.693-6.899 4.693-11.32s-1.793-8.424-4.692-11.32v0z" />
<glyph unicode="&#xe97b;" glyph-name="arrow-u-left-down-thin" data-tags="arrow-u-left-down-thin" d="M816 608v-352c0-8.837-7.163-16-16-16s-16 7.163-16 16v0 352c0 114.875-93.125 208-208 208s-208-93.125-208-208v0-505.36l164.68 164.68c2.897 2.897 6.899 4.689 11.32 4.689 8.841 0 16.009-7.167 16.009-16.009 0-4.421-1.792-8.423-4.689-11.32l-192-192c-2.896-2.899-6.899-4.693-11.32-4.693s-8.424 1.793-11.32 4.692v0l-192 192c-2.897 2.897-4.689 6.899-4.689 11.32 0 8.841 7.167 16.009 16.009 16.009 4.421 0 8.423-1.792 11.32-4.689l164.68-164.68v505.36c0 132.548 107.452 240 240 240s240-107.452 240-240v0z" />
<glyph unicode="&#xe97c;" glyph-name="arrow-u-left-up-thin" data-tags="arrow-u-left-up-thin" d="M816 640v-352c0-132.548-107.452-240-240-240s-240 107.452-240 240v0 505.36l-164.68-164.68c-2.897-2.897-6.899-4.689-11.32-4.689-8.841 0-16.009 7.167-16.009 16.009 0 4.421 1.792 8.423 4.689 11.32l192 192c2.896 2.899 6.899 4.693 11.32 4.693s8.424-1.793 11.32-4.692v0l192-192c2.897-2.897 4.689-6.899 4.689-11.32 0-8.841-7.167-16.009-16.009-16.009-4.421 0-8.423 1.792-11.32 4.689l-164.68 164.68v-505.36c0-114.875 93.125-208 208-208s208 93.125 208 208v0 352c0 8.837 7.163 16 16 16s16-7.163 16-16v0z" />
<glyph unicode="&#xe97d;" glyph-name="arrow-up-left-thin" data-tags="arrow-up-left-thin" d="M779.32 180.68c-2.896-2.899-6.899-4.693-11.32-4.693s-8.424 1.793-11.32 4.692v0l-484.68 484.68v-377.36c0-8.837-7.163-16-16-16s-16 7.163-16 16v0 416c0 8.837 7.163 16 16 16v0h416c8.837 0 16-7.163 16-16s-7.163-16-16-16v0h-377.36l484.68-484.68c2.899-2.896 4.693-6.899 4.693-11.32s-1.793-8.424-4.692-11.32v0z" />
<glyph unicode="&#xe97e;" glyph-name="arrow-up-right-thin" data-tags="arrow-up-right-thin" d="M784 704v-416c0-8.837-7.163-16-16-16s-16 7.163-16 16v0 377.36l-484.68-484.68c-2.897-2.897-6.899-4.689-11.32-4.689-8.841 0-16.009 7.167-16.009 16.009 0 4.421 1.792 8.423 4.689 11.32l484.68 484.68h-377.36c-8.837 0-16 7.163-16 16s7.163 16 16 16v0h416c8.837 0 16-7.163 16-16v0z" />
</font>
</defs>
</svg>
