<?xml version="1.0" standalone="no"?>
<!DOCTYPE svg PUBLIC "-//W3C//DTD SVG 1.1//EN" "http://www.w3.org/Graphics/SVG/1.1/DTD/svg11.dtd" >
<svg xmlns="http://www.w3.org/2000/svg">
<metadata>
<json>
<![CDATA[
{
	"fontFamily": "Phosphor-Bold",
	"majorVersion": 2,
	"minorVersion": 0,
	"fontURL": "https://phosphoricons.com",
	"copyright": "2023",
	"designer": "Helena Zhang & Tobias Fried",
	"designerURL": "https://phosphoricons.com",
	"license": "MIT",
	"licenseURL": "https://github.com/phosphor-icons/homepage/blob/master/LICENSE",
	"version": "Version 2.0",
	"fontId": "Phosphor-Bold",
	"psName": "Phosphor-Bold",
	"subFamily": "Regular",
	"fullName": "Phosphor-Bold",
	"description": "Font generated by IcoMoon."
}
]]>
</json>
</metadata>
<defs>
<font id="Phosphor-Bold" horiz-adv-x="1024">
<font-face units-per-em="1024" ascent="960" descent="-64" />
<missing-glyph horiz-adv-x="1024" />
<glyph unicode="&#x20;" horiz-adv-x="512" d="" />
<glyph unicode="&#xe900;" glyph-name="address-book-bold" data-tags="address-book-bold" d="M832 880h-576c-44.183 0-80-35.817-80-80v0-80h-48c-26.51 0-48-21.49-48-48s21.49-48 48-48v0h48v-128h-48c-26.51 0-48-21.49-48-48s21.49-48 48-48v0h48v-128h-48c-26.51 0-48-21.49-48-48s21.49-48 48-48v0h48v-80c0-44.183 35.817-80 80-80v0h576c44.183 0 80 35.817 80 80v0 704c0 44.183-35.817 80-80 80v0zM816 112h-544v672h544zM403.2 274.52c35.17 37.856 85.228 61.465 140.8 61.465s105.63-23.609 140.69-61.345l0.11-0.12c8.793-9.463 21.307-15.364 35.2-15.364 26.512 0 48.004 21.492 48.004 48.004 0 12.619-4.869 24.101-12.832 32.67l0.027-0.030c-21.756 23.327-47.127 42.918-75.292 57.965l-1.548 0.755c25.88 30.447 41.62 70.214 41.62 113.657 0 97.202-78.798 176-176 176s-176-78.798-176-176c0-43.443 15.74-83.21 41.828-113.909l-0.208 0.251c-29.693-15.814-55.050-35.404-76.643-58.55l-0.157-0.17c-7.935-8.539-12.804-20.021-12.804-32.64 0-26.512 21.492-48.004 48.004-48.004 13.893 0 26.407 5.902 35.173 15.334l0.027 0.030zM464 512c0 44.183 35.817 80 80 80s80-35.817 80-80c0-44.183-35.817-80-80-80v0c-44.183 0-80 35.817-80 80v0z" />
<glyph unicode="&#xe901;" glyph-name="airplane-bold" data-tags="airplane-bold" d="M949.48 458.92l-293.48 146.76v162.32c0 79.529-64.471 144-144 144s-144-64.471-144-144v0-162.32l-293.48-146.76c-15.848-8.058-26.518-24.243-26.52-42.92v0-128c0-0.003 0-0.006 0-0.009 0-26.51 21.49-48 48-48 3.326 0 6.574 0.338 9.71 0.983l-0.31-0.053 262.6 52.52v-49.44l-49.96-50.040c-8.675-8.684-14.040-20.677-14.040-33.922 0-0.013 0-0.027 0-0.040v0.002-128c0.001-26.509 21.491-47.998 48-47.998 6.427 0 12.558 1.263 18.16 3.554l-0.32-0.116 142.16 56.88 142.16-56.88c5.261-2.176 11.37-3.44 17.775-3.44 0.023 0 0.046 0 0.069 0h-0.004c26.51 0 48 21.49 48 48v0 128c0 0.011 0 0.024 0 0.038 0 13.245-5.365 25.238-14.040 33.923l-49.96 50.040v49.44l262.6-52.52c2.826-0.591 6.074-0.929 9.4-0.929 26.51 0 48 21.49 48 48 0 0.003 0 0.007 0 0.010v0 128c-0.002 18.677-10.672 34.862-26.248 42.794l-0.272 0.126zM880 346.56l-262.6 52.52c-2.826 0.591-6.074 0.929-9.4 0.929-26.51 0-48-21.49-48-48 0-0.003 0-0.007 0-0.010v0-128c0-0.011 0-0.024 0-0.038 0-13.245 5.365-25.238 14.040-33.923l49.96-50.040v-37.24l-94.16 37.68c-5.282 2.175-11.413 3.438-17.84 3.438s-12.558-1.263-18.16-3.554l0.32 0.116-94.16-37.56v37.12l49.96 49.92c8.675 8.684 14.040 20.677 14.040 33.922 0 0.055 0 0.111 0 0.166v-0.009 128c0 0.003 0 0.006 0 0.009 0 26.51-21.49 48-48 48-3.326 0-6.574-0.338-9.71-0.983l0.31 0.053-262.6-52.52v39.76l293.48 146.76c15.848 8.058 26.518 24.243 26.52 42.92v0 192c0 26.51 21.49 48 48 48s48-21.49 48-48v0-192c0.002-18.677 10.672-34.862 26.248-42.794l0.272-0.126 293.48-146.76z" />
<glyph unicode="&#xe902;" glyph-name="airplane-in-flight-bold" data-tags="airplane-in-flight-bold" d="M912 96c0-26.51-21.49-48-48-48v0h-576c-26.51 0-48 21.49-48 48s21.49 48 48 48v0h576c26.51 0 48-21.49 48-48v0zM1008 416v-96c0-26.51-21.49-48-48-48v0h-715.72c-0.242-0.001-0.528-0.002-0.814-0.002-78.961 0-145.7 52.331-167.425 124.204l-0.322 1.238-56.28 187.56c-2.143 6.883-3.378 14.798-3.378 23 0 44.161 35.782 79.964 79.934 80h32.004c13.245-0.001 25.236-5.366 33.92-14.040l82.080-81.96h61.080l-29.080 86.72c-2.599 7.544-4.099 16.237-4.099 25.28 0 44.183 35.817 80 80 80 0.035 0 0.070 0 0.105 0h31.995c13.245-0.001 25.236-5.366 33.92-14.040l178.080-177.96h236c97.156-0.114 175.886-78.844 176-175.989v-0.011zM912 416c0 44.183-35.817 80-80 80v0h-256c-13.245 0.001-25.236 5.366-33.92 14.040v0l-162.76 162.8 37.88-113.68c1.558-4.524 2.457-9.737 2.457-15.16 0-26.51-21.49-48-48-48-0.006 0-0.012 0-0.018 0h-147.639c-0.011 0-0.024 0-0.038 0-13.245 0-25.238 5.365-33.923 14.040v0l-68.44 68.52 46.040-153.56c10.052-33.226 40.397-57.001 76.295-57.001 0.121 0 0.243 0 0.364 0.001h667.701z" />
<glyph unicode="&#xe903;" glyph-name="airplane-landing-bold" data-tags="airplane-landing-bold" d="M1008 96c0-26.51-21.49-48-48-48v0h-576c-26.51 0-48 21.49-48 48s21.49 48 48 48v0h576c26.51 0 48-21.49 48-48v0zM883.040 193.8l-706.48 197.84c-74.663 21.576-128.372 89.23-128.56 169.458v206.902c0 0.029 0 0.064 0 0.099 0 44.183 35.817 80 80 80 9.043 0 17.736-1.501 25.843-4.266l-0.563 0.167 21.92-7.32c13.981-4.756 24.858-15.385 29.852-28.868l0.108-0.332 39.64-109.84 91.2-26v96.36c0 0.029 0 0.064 0 0.099 0 44.183 35.817 80 80 80 9.043 0 17.736-1.501 25.843-4.266l-0.563 0.167 21.92-7.32c13.221-4.499 23.637-14.223 28.961-26.647l0.119-0.313 87-207.4 236-65.96c74.79-21.522 128.6-89.28 128.72-169.626v-126.734c-0.010-26.502-21.496-47.983-48-47.983-4.614 0-9.076 0.651-13.299 1.866l0.339-0.083zM848 366.72c-0.074 36.54-24.572 67.338-58.034 76.941l-0.566 0.139-258.32 72.2c-14.265 4.068-25.602 14.185-31.241 27.328l-0.119 0.312-67.72 161.52v-97.16c-0.023-26.492-21.505-47.959-48-47.959-4.687 0-9.217 0.672-13.499 1.924l0.339-0.085-176 50.12c-14.936 4.347-26.655 15.355-31.892 29.508l-0.108 0.332-18.84 52.24v-132.96c0.062-36.507 24.482-67.293 57.873-76.979l0.567-0.141 645.56-180.72z" />
<glyph unicode="&#xe904;" glyph-name="airplane-takeoff-bold" data-tags="airplane-takeoff-bold" d="M720 96c0-26.51-21.49-48-48-48v0h-576c-26.51 0-48 21.49-48 48s21.49 48 48 48v0h576c26.51 0 48-21.49 48-48v0zM1007.16 600.48c-2.648-13.848-10.944-25.37-22.346-32.28l-0.214-0.12-590.12-352.36c-25.357-15.135-55.925-24.082-88.583-24.082-46.598 0-88.941 18.217-120.297 47.917l0.080-0.075-0.76 0.72-144 141c-15.3 14.599-24.813 35.147-24.813 57.917 0 32.228 19.057 60.005 46.517 72.677l0.496 0.205 11.76 5.76c6.161 3.084 13.422 4.889 21.105 4.889 5.503 0 10.789-0.926 15.712-2.63l-0.337 0.102 106-35.76 56.6 34.24-72.28 70.28c-15.788 14.656-25.636 35.523-25.636 58.69 0 32.775 19.709 60.946 47.922 73.309l0.514 0.201 1.92 0.8 28.6 10.8c4.991 1.922 10.765 3.036 16.8 3.036s11.809-1.114 17.129-3.146l-0.329 0.11 208.56-76.68 199.72 119.2c25.635 15.534 56.614 24.727 89.739 24.727 54.733 0 103.605-25.098 135.733-64.414l0.248-0.314c0.238-0.263 0.461-0.55 0.663-0.853l0.017-0.027 74.56-95.52c6.33-8.027 10.153-18.287 10.153-29.44 0-3.14-0.303-6.21-0.882-9.181l0.049 0.301zM888.72 622.64l-40.72 52.2c-14.701 17.82-36.786 29.092-61.504 29.092-15.003 0-29.037-4.153-41.013-11.372l0.358 0.2-219.080-130.8c-7.070-4.33-15.628-6.894-24.785-6.894-5.89 0-11.533 1.061-16.747 3.002l0.332-0.108-184 67.76 84-81.6c8.975-8.731 14.542-20.924 14.542-34.418 0-17.323-9.176-32.502-22.933-40.943l-0.209-0.119-128.96-77.8c-7.065-4.322-15.616-6.882-24.765-6.882-5.451 0-10.689 0.909-15.573 2.583l0.338-0.101-53.4 18 97.24-95.2c14.18-13.277 33.299-21.432 54.322-21.432 14.768 0 28.596 4.023 40.447 11.034l-0.369-0.202z" />
<glyph unicode="&#xe905;" glyph-name="airplane-tilt-bold" data-tags="airplane-tilt-bold" d="M760 498.76l109.88 103.48c25.566 25.973 41.351 61.639 41.351 100.991 0 79.529-64.471 144-144 144-39.352 0-75.018-15.785-101.010-41.369l0.019 0.018c-0.36-0.32-0.68-0.68-1.040-1.040l-102.44-108.84-322.36 117.16c-4.876 1.828-10.51 2.886-16.392 2.886-13.248 0-25.243-5.367-33.928-14.046l-96-96c-8.738-8.695-14.146-20.73-14.146-34.028 0-16.608 8.434-31.246 21.254-39.864l0.172-0.109 239.32-159.52-40.68-40.48h-76c-13.245-0.001-25.236-5.366-33.92-14.040v0l-96-96c-8.694-8.688-14.072-20.693-14.072-33.954 0-20.050 12.293-37.228 29.752-44.41l0.319-0.116 140.92-56.4 56.6-141.44c7.406-17.542 24.464-29.629 44.345-29.629 13.634 0 25.94 5.684 34.678 14.812l0.017 0.018 95.24 95.24c8.704 8.673 14.097 20.665 14.12 33.916v76.004l40.52 40.52 159.48-239.12c8.731-12.964 23.353-21.377 39.94-21.377 13.254 0 25.253 5.372 33.94 14.057l96 96c8.685 8.686 14.056 20.685 14.056 33.939 0 5.893-1.062 11.537-3.005 16.753l0.108-0.332zM743.56 139.36l-159.56 239.32c-7.867 11.667-20.474 19.622-34.996 21.103l-0.204 0.017c-1.301 0.129-2.811 0.202-4.339 0.202-0.162 0-0.324-0.001-0.486-0.002h0.025c-13.265-0.001-25.272-5.382-33.96-14.080v0l-96-96c-8.675-8.684-14.039-20.675-14.040-33.92v0-76l-30.48-30.48-36.96 92.4c-4.985 12.246-14.514 21.775-26.439 26.644l-0.321 0.116-92.4 36.96 30.6 30.36h76c13.245 0.001 25.236 5.366 33.92 14.040v0l96 96c8.724 8.692 14.121 20.718 14.121 34.004 0 16.598-8.424 31.228-21.23 39.848l-0.171 0.109-239.28 159.52 32.96 33 323.32-117.56c4.882-1.833 10.524-2.894 16.415-2.894 13.762 0 26.171 5.792 34.923 15.070l0.022 0.024 123.56 131.28c8.701 8.701 20.722 14.083 34 14.083 26.556 0 48.083-21.528 48.083-48.083 0-13.278-5.382-25.299-14.083-34v0l-131.28-123.56c-9.32-8.776-15.124-21.197-15.124-34.974 0-5.88 1.057-11.512 2.992-16.718l-0.108 0.332 117.6-323.28z" />
<glyph unicode="&#xe906;" glyph-name="airplay-bold" data-tags="airplay-bold" d="M548.44 351.24c-8.855 10.285-21.892 16.757-36.44 16.757s-27.585-6.472-36.387-16.694l-0.053-0.063-192-224c-7.183-8.341-11.557-19.28-11.557-31.24 0-26.509 21.489-47.999 47.997-48h384c26.509 0.001 47.997 21.491 47.997 48 0 11.96-4.374 22.899-11.61 31.303l0.053-0.063zM424.44 144l87.56 102.24 87.64-102.24zM944 704v-448c0-61.856-50.144-112-112-112v0c-26.51 0-48 21.49-48 48s21.49 48 48 48v0c8.837 0 16 7.163 16 16v0 448c0 8.837-7.163 16-16 16v0h-640c-8.837 0-16-7.163-16-16v0-448c0-8.837 7.163-16 16-16v0c26.51 0 48-21.49 48-48s-21.49-48-48-48v0c-61.856 0-112 50.144-112 112v0 448c0 61.856 50.144 112 112 112v0h640c61.856 0 112-50.144 112-112v0z" />
<glyph unicode="&#xe907;" glyph-name="air-traffic-control-bold" data-tags="air-traffic-control-bold" d="M929.52 717.92c-14.657 20.718-38.522 34.080-65.508 34.080-0.004 0-0.008 0-0.012 0h-303.999v96h48c26.51 0 48 21.49 48 48s-21.49 48-48 48v0h-192c-26.51 0-48-21.49-48-48s21.49-48 48-48v0h48v-96h-304c-0.003 0-0.006 0-0.009 0-44.183 0-80-35.817-80-80 0-9.803 1.763-19.194 4.99-27.873l-0.18 0.553 104.76-288c11.55-30.941 40.816-52.592 75.149-52.68h103.291v-240c0-26.51 21.49-48 48-48s48 21.49 48 48v0 240h96v-240c0-26.51 21.49-48 48-48s48 21.49 48 48v0 240h103.28c34.344 0.088 63.61 21.739 74.978 52.126l0.182 0.554 104.76 288c3.047 8.127 4.81 17.518 4.81 27.322 0 17.196-5.425 33.125-14.658 46.168l0.168-0.25zM456 400l-46.48 256h204.96l-46.48-256zM182.84 656h129.16l46.56-256h-82.56zM748 400h-82.48l46.48 256h129.080z" />
<glyph unicode="&#xe908;" glyph-name="alarm-bold" data-tags="alarm-bold" d="M512 848c-220.914 0-400-179.086-400-400s179.086-400 400-400c220.914 0 400 179.086 400 400v0c-0.25 220.813-179.187 399.75-399.976 400h-0.024zM512 144c-167.895 0-304 136.105-304 304s136.105 304 304 304c167.895 0 304-136.105 304-304v0c-0.182-167.821-136.179-303.818-303.983-304h-0.017zM129.96 702.040c-8.701-8.701-20.722-14.083-34-14.083-26.556 0-48.083 21.528-48.083 48.083 0 13.278 5.382 25.299 14.083 34l128 128c8.701 8.701 20.722 14.083 34 14.083 26.556 0 48.083-21.528 48.083-48.083 0-13.278-5.382-25.299-14.083-34v0zM961.96 702.040c-8.692-8.721-20.716-14.118-34-14.118s-25.308 5.396-33.999 14.116l-128.001 128.001c-8.701 8.701-14.083 20.722-14.083 34 0 26.556 21.528 48.083 48.083 48.083 13.278 0 25.299-5.382 34-14.083l128-128c8.721-8.692 14.118-20.716 14.118-34s-5.396-25.308-14.116-33.999l-0.001-0.001zM704 496c26.51 0 48-21.49 48-48s-21.49-48-48-48v0h-192c-26.51 0-48 21.49-48 48v0 192c0 26.51 21.49 48 48 48s48-21.49 48-48v0-144z" />
<glyph unicode="&#xe909;" glyph-name="alien-bold" data-tags="alien-bold" d="M512 912c-220.813-0.25-399.75-179.187-400-399.976v-0.024c0-99.44 51.44-227.2 137.64-341.76 32.88-43.68 148.92-186.24 262.36-186.24s229.48 142.56 262.36 186.24c86.2 114.56 137.64 242.32 137.64 341.76-0.25 220.813-179.187 399.75-399.976 400h-0.024zM697.64 228c-55.32-73.52-136.84-148-185.64-148s-130.32 74.44-185.64 148c-73 97-118.36 205.84-118.36 284 0 167.895 136.105 304 304 304s304-136.105 304-304v0c0-78.16-45.36-187-118.36-284zM416 368c-79.529 0-144 64.471-144 144v0c0 26.51 21.49 48 48 48v0c79.529 0 144-64.471 144-144v0c0-26.51-21.49-48-48-48v0zM752 512c0-79.529-64.471-144-144-144v0c-26.51 0-48 21.49-48 48v0c0 79.529 64.471 144 144 144v0c26.51 0 48-21.49 48-48v0zM608 224c0-26.51-21.49-48-48-48v0h-96c-26.51 0-48 21.49-48 48s21.49 48 48 48v0h96c26.51 0 48-21.49 48-48v0z" />
<glyph unicode="&#xe90a;" glyph-name="align-bottom-bold" data-tags="align-bottom-bold" d="M912 96c0-26.51-21.49-48-48-48v0h-704c-26.51 0-48 21.49-48 48s21.49 48 48 48v0h704c26.51 0 48-21.49 48-48v0zM544 288v352c0 44.183 35.817 80 80 80v0h144c44.183 0 80-35.817 80-80v0-352c0-44.183-35.817-80-80-80v0h-144c-44.183 0-80 35.817-80 80v0zM640 304h112v320h-112zM176 288v512c0 44.183 35.817 80 80 80v0h144c44.183 0 80-35.817 80-80v0-512c0-44.183-35.817-80-80-80v0h-144c-44.183 0-80 35.817-80 80v0zM272 304h112v480h-112z" />
<glyph unicode="&#xe90b;" glyph-name="align-bottom-simple-bold" data-tags="align-bottom-simple-bold" d="M848 32c0-26.51-21.49-48-48-48v0h-576c-26.51 0-48 21.49-48 48s21.49 48 48 48v0h576c26.51 0 48-21.49 48-48v0zM304 224v576c0 44.183 35.817 80 80 80v0h256c44.183 0 80-35.817 80-80v0-576c0-44.183-35.817-80-80-80v0h-256c-44.183 0-80 35.817-80 80v0zM400 240h224v544h-224z" />
<glyph unicode="&#xe90c;" glyph-name="align-center-horizontal-bold" data-tags="align-center-horizontal-bold" d="M832 416h-272v64h176c44.183 0 80 35.817 80 80v0 160c0 44.183-35.817 80-80 80v0h-176v32c0 26.51-21.49 48-48 48s-48-21.49-48-48v0-32h-176c-44.183 0-80-35.817-80-80v0-160c0-44.183 35.817-80 80-80v0h176v-64h-272c-44.183 0-80-35.817-80-80v0-160c0-44.183 35.817-80 80-80v0h272v-32c0-26.51 21.49-48 48-48s48 21.49 48 48v0 32h272c44.183 0 80 35.817 80 80v0 160c0 44.183-35.817 80-80 80v0zM304 704h416v-128h-416zM816 192h-608v128h608z" />
<glyph unicode="&#xe90d;" glyph-name="align-center-horizontal-simple-bold" data-tags="align-center-horizontal-simple-bold" d="M832 656h-272v112c0 26.51-21.49 48-48 48s-48-21.49-48-48v0-112h-272c-44.183 0-80-35.817-80-80v0-256c0-44.183 35.817-80 80-80v0h272v-112c0-26.51 21.49-48 48-48s48 21.49 48 48v0 112h272c44.183 0 80 35.817 80 80v0 256c0 44.183-35.817 80-80 80v0zM816 336h-608v224h608z" />
<glyph unicode="&#xe90e;" glyph-name="align-center-vertical-bold" data-tags="align-center-vertical-bold" d="M896 496h-32v176c0 44.183-35.817 80-80 80v0h-160c-44.183 0-80-35.817-80-80v0-176h-64v272c0 44.183-35.817 80-80 80v0h-160c-44.183 0-80-35.817-80-80v0-272h-32c-26.51 0-48-21.49-48-48s21.49-48 48-48v0h32v-272c0-44.183 35.817-80 80-80v0h160c44.183 0 80 35.817 80 80v0 272h64v-176c0-44.183 35.817-80 80-80v0h160c44.183 0 80 35.817 80 80v0 176h32c26.51 0 48 21.49 48 48s-21.49 48-48 48v0zM384 144h-128v608h128zM768 240h-128v416h128z" />
<glyph unicode="&#xe90f;" glyph-name="align-center-vertical-simple-bold" data-tags="align-center-vertical-simple-bold" d="M832 496h-112v272c0 44.183-35.817 80-80 80v0h-256c-44.183 0-80-35.817-80-80v0-272h-112c-26.51 0-48-21.49-48-48s21.49-48 48-48v0h112v-272c0-44.183 35.817-80 80-80v0h256c44.183 0 80 35.817 80 80v0 272h112c26.51 0 48 21.49 48 48s-21.49 48-48 48v0zM624 144h-224v608h224z" />
<glyph unicode="&#xe910;" glyph-name="align-left-bold" data-tags="align-left-bold" d="M208 800v-704c0-26.51-21.49-48-48-48s-48 21.49-48 48v0 704c0 26.51 21.49 48 48 48s48-21.49 48-48v0zM272 560v144c0 44.183 35.817 80 80 80v0h352c44.183 0 80-35.817 80-80v0-144c0-44.183-35.817-80-80-80v0h-352c-44.183 0-80 35.817-80 80v0zM368 576h320v112h-320zM944 336v-144c0-44.183-35.817-80-80-80v0h-512c-44.183 0-80 35.817-80 80v0 144c0 44.183 35.817 80 80 80v0h512c44.183 0 80-35.817 80-80v0zM848 320h-480v-112h480z" />
<glyph unicode="&#xe911;" glyph-name="align-left-simple-bold" data-tags="align-left-simple-bold" d="M176 736v-576c0-26.51-21.49-48-48-48s-48 21.49-48 48v0 576c0 26.51 21.49 48 48 48s48-21.49 48-48v0zM976 576v-256c0-44.183-35.817-80-80-80v0h-576c-44.183 0-80 35.817-80 80v0 256c0 44.183 35.817 80 80 80v0h576c44.183 0 80-35.817 80-80v0zM880 560h-544v-224h544z" />
<glyph unicode="&#xe912;" glyph-name="align-right-bold" data-tags="align-right-bold" d="M912 800v-704c0-26.51-21.49-48-48-48s-48 21.49-48 48v0 704c0 26.51 21.49 48 48 48s48-21.49 48-48v0zM752 704v-144c0-44.183-35.817-80-80-80v0h-352c-44.183 0-80 35.817-80 80v0 144c0 44.183 35.817 80 80 80v0h352c44.183 0 80-35.817 80-80v0zM656 688h-320v-112h320zM752 336v-144c0-44.183-35.817-80-80-80v0h-512c-44.183 0-80 35.817-80 80v0 144c0 44.183 35.817 80 80 80v0h512c44.183 0 80-35.817 80-80v0zM656 320h-480v-112h480z" />
<glyph unicode="&#xe913;" glyph-name="align-right-simple-bold" data-tags="align-right-simple-bold" d="M944 736v-576c0-26.51-21.49-48-48-48s-48 21.49-48 48v0 576c0 26.51 21.49 48 48 48s48-21.49 48-48v0zM784 576v-256c0-44.183-35.817-80-80-80v0h-576c-44.183 0-80 35.817-80 80v0 256c0 44.183 35.817 80 80 80v0h576c44.183 0 80-35.817 80-80v0zM688 560h-544v-224h544z" />
<glyph unicode="&#xe914;" glyph-name="align-top-bold" data-tags="align-top-bold" d="M912 800c0-26.51-21.49-48-48-48v0h-704c-26.51 0-48 21.49-48 48s21.49 48 48 48v0h704c26.51 0 48-21.49 48-48v0zM848 608v-352c0-44.183-35.817-80-80-80v0h-144c-44.183 0-80 35.817-80 80v0 352c0 44.183 35.817 80 80 80v0h144c44.183 0 80-35.817 80-80v0zM752 592h-112v-320h112zM480 608v-512c0-44.183-35.817-80-80-80v0h-144c-44.183 0-80 35.817-80 80v0 512c0 44.183 35.817 80 80 80v0h144c44.183 0 80-35.817 80-80v0zM384 592h-112v-480h112z" />
<glyph unicode="&#xe915;" glyph-name="align-top-simple-bold" data-tags="align-top-simple-bold" d="M848 832c0-26.51-21.49-48-48-48v0h-576c-26.51 0-48 21.49-48 48s21.49 48 48 48v0h576c26.51 0 48-21.49 48-48v0zM720 640v-576c0-44.183-35.817-80-80-80v0h-256c-44.183 0-80 35.817-80 80v0 576c0 44.183 35.817 80 80 80v0h256c44.183 0 80-35.817 80-80v0zM624 624h-224v-544h224z" />
<glyph unicode="&#xe916;" glyph-name="amazon-logo-bold" data-tags="amazon-logo-bold" d="M1008 288v-128c0-26.51-21.49-48-48-48s-48 21.49-48 48v0 12.36c-49.76-46-191-156.36-400-156.36-258.4 0-413.2 168.72-419.68 176-8.698 8.688-14.079 20.696-14.079 33.961 0 26.51 21.49 48 48 48 15.098 0 28.568-6.971 37.367-17.869l0.071-0.091c1.2-1.32 133.92-144 348.32-144 170.6 0 289.36 90.32 331.48 128h-11.48c-26.51 0-48 21.49-48 48s21.49 48 48 48v0h128c26.51 0 48-21.49 48-48v0zM624 615.68v8.32c0 0.012 0 0.026 0 0.040 0 70.692-57.308 128-128 128-44.753 0-84.141-22.967-107.022-57.757l-0.298-0.483c-8.696-13.205-23.454-21.801-40.22-21.801-26.51 0-48.001 21.491-48.001 48.001 0 9.744 2.903 18.81 7.893 26.38l-0.112-0.18c40.57 61.685 109.475 101.844 187.76 101.844 123.712 0 224-100.288 224-224 0-0.015 0-0.031 0-0.046v0.003-368c-0.181-26.372-21.601-47.681-47.999-47.681-23.841 0-43.622 17.381-47.363 40.163l-0.038 0.278c-35.873-25.49-80.566-40.75-128.824-40.75-123.712 0-224 100.288-224 224s100.288 224 224 224c48 0 92.473-15.097 128.931-40.803l-0.707 0.473zM624 432c0 70.692-57.308 128-128 128s-128-57.308-128-128c0-70.692 57.308-128 128-128v0c70.692 0 128 57.308 128 128v0z" />
<glyph unicode="&#xe917;" glyph-name="anchor-bold" data-tags="anchor-bold" d="M864 432c-26.51 0-48-21.49-48-48v0c0-79.529-64.471-144-144-144v0c-0.034 0-0.075 0-0.116 0-41.565 0-80.266-12.263-112.683-33.367l0.798 0.487v224.88h112c26.51 0 48 21.49 48 48s-21.49 48-48 48v0h-112v72.24c56.408 20.365 96 73.441 96 135.765 0 79.529-64.471 144-144 144s-144-64.471-144-144c0-62.323 39.592-115.399 94.997-135.448l1.003-0.317v-72.24h-112c-26.51 0-48-21.49-48-48s21.49-48 48-48v0h112v-224.88c-31.618 20.617-70.319 32.88-111.884 32.88-0.041 0-0.081 0-0.122 0h0.006c-79.529 0-144 64.471-144 144v0c0 26.51-21.49 48-48 48s-48-21.49-48-48v0c0.159-132.484 107.516-239.841 239.984-240h0.016c61.856 0 112-50.144 112-112v0c0-26.51 21.49-48 48-48s48 21.49 48 48v0c0 61.856 50.144 112 112 112v0c132.484 0.159 239.841 107.516 240 239.984v0.016c0 26.51-21.49 48-48 48v0zM512 784c26.51 0 48-21.49 48-48s-21.49-48-48-48c-26.51 0-48 21.49-48 48v0c0 26.51 21.49 48 48 48v0z" />
<glyph unicode="&#xe918;" glyph-name="anchor-simple-bold" data-tags="anchor-simple-bold" d="M896 528h-96c-26.51 0-48-21.49-48-48s21.49-48 48-48v0h44.6c-22.155-147.396-137.199-262.426-282.744-284.33l-1.856-0.23v420.8c56.408 20.365 96 73.441 96 135.765 0 79.529-64.471 144-144 144s-144-64.471-144-144c0-62.323 39.592-115.399 94.997-135.448l1.003-0.317v-420.8c-147.401 22.134-262.445 137.164-284.37 282.703l-0.23 1.857h44.6c26.51 0 48 21.49 48 48s-21.49 48-48 48v0h-96c-26.51 0-48-21.49-48-48v0c0-238.587 193.413-432 432-432s432 193.413 432 432v0c0 26.51-21.49 48-48 48v0zM512 752c26.51 0 48-21.49 48-48s-21.49-48-48-48c-26.51 0-48 21.49-48 48v0c0 26.51 21.49 48 48 48v0z" />
<glyph unicode="&#xe919;" glyph-name="android-logo-bold" data-tags="android-logo-bold" d="M720 336c0-35.346-28.654-64-64-64s-64 28.654-64 64c0 35.346 28.654 64 64 64v0c35.346 0 64-28.654 64-64v0zM368 400c-35.346 0-64-28.654-64-64s28.654-64 64-64c35.346 0 64 28.654 64 64v0c0 35.346-28.654 64-64 64v0zM976 288v-96c0-44.183-35.817-80-80-80v0h-768c-44.183 0-80 35.817-80 80v0 91.48c0 0.139 0 0.304 0 0.469 0 128.321 51.491 244.616 134.938 329.35l-0.058-0.059-88.84 88.8c-8.701 8.701-14.083 20.722-14.083 34 0 26.556 21.528 48.083 48.083 48.083 13.278 0 25.299-5.382 34-14.083v0l95.16-95.36c71.103 48.193 158.735 77.041 253.089 77.32h1.711c0.375 0.001 0.819 0.002 1.263 0.002 94.718 0 182.759-28.59 255.963-77.612l-1.666 1.050 94.48 94.52c8.701 8.701 20.722 14.083 34 14.083 26.556 0 48.083-21.528 48.083-48.083 0-13.278-5.382-25.299-14.083-34l-88-88c82.789-83.275 133.961-198.059 133.961-324.795 0-0.41-0.001-0.819-0.002-1.229v0.064zM880 288c0 0.001 0 0.001 0 0.002 0 203.241-164.759 368-368 368-0.464 0-0.928-0.001-1.392-0.003h0.072c-202.2-0.72-366.68-168-366.68-372.52v-75.48h736z" />
<glyph unicode="&#xe91a;" glyph-name="angular-logo-bold" data-tags="angular-logo-bold" d="M914.44 716.32l-384 160c-5.458 2.34-11.81 3.7-18.48 3.7s-13.022-1.36-18.794-3.819l0.314 0.119-384-160c-17.496-7.426-29.545-24.461-29.545-44.31 0-2.246 0.154-4.456 0.453-6.62l-0.028 0.251 64-480c2.208-16.082 12.108-29.451 25.808-36.434l0.272-0.126 320-160c6.258-3.199 13.65-5.074 21.48-5.074s15.222 1.875 21.752 5.2l-0.272-0.126 320 160c13.972 7.109 23.872 20.478 26.052 36.31l0.028 0.25 64 480c0.273 1.923 0.429 4.144 0.429 6.401 0 19.82-12.013 36.835-29.156 44.16l-0.313 0.119zM788 223.56l-276-137.88-275.8 137.88-55.76 418.28 331.56 138.16 331.56-138.16zM470.040 631.32l-160-288c-3.8-6.721-6.040-14.759-6.040-23.32 0-26.532 21.508-48.040 48.040-48.040 17.971 0 33.636 9.867 41.875 24.479l0.125 0.24 30.64 55.32h174.64l30.72-55.32c8.364-14.853 24.029-24.72 42-24.72 26.532 0 48.040 21.508 48.040 48.040 0 8.561-2.239 16.599-6.164 23.56l0.125-0.24-160 288c-8.347 14.875-24.019 24.762-42 24.762s-33.653-9.887-41.875-24.521l-0.125-0.241zM478.040 448l33.96 61.16 33.96-61.16z" />
<glyph unicode="&#xe91b;" glyph-name="aperture-bold" data-tags="aperture-bold" d="M817.64 753.48c-78.176 78.171-186.172 126.52-305.46 126.52-238.587 0-432-193.413-432-432s193.413-432 432-432c119.289 0 227.285 48.349 305.461 126.52v0c78.786 77.899 127.577 185.992 127.577 305.48s-48.791 227.58-127.537 305.44l-0.040 0.040zM749.64 685.48c12.622-12.561 24.238-26.106 34.734-40.52l0.666-0.96-109.040-128.36-93.2 260.84c65.784-14.351 122.577-46.398 166.912-90.872l0.008-0.008zM274.24 685.48c53.054 53.315 123.988 88.796 203.047 96.687l1.393 0.113 56.64-158.6-272.48 49.88c3.72 4.080 7.52 8.080 11.48 12.040zM192 345.2c-10.164 30.726-16.027 66.095-16.027 102.834 0 50.122 10.913 97.696 30.491 140.475l-0.865-2.108 165.76-30.4zM274.2 210.4c-12.553 12.585-24.119 26.169-34.563 40.617l-0.677 0.983 109.040 128.36 93.2-260.84c-65.768 14.36-122.546 46.406-166.871 90.871l-0.009 0.009zM419.64 464.84l60.72 71.4 92.24-16.84 31.52-88.24-60.68-71.4-92.24 16.84zM749.6 210.4c-53.063-53.302-123.992-88.778-203.044-96.687l-1.396-0.113-56.56 158.4 272.56-49.76c-3.72-3.88-7.52-7.88-11.44-11.84zM652.64 340l179.36 210.8c10.162-30.714 16.024-66.069 16.024-102.794 0-50.14-10.927-97.728-30.529-140.512l0.865 2.106z" />
<glyph unicode="&#xe91c;" glyph-name="apple-logo-bold" data-tags="apple-logo-bold" d="M908 288c-3.723 8.378-9.489 15.274-16.681 20.256l-0.159 0.104c-62.16 42.76-75.16 116.92-75.16 171.64 0 64.68 50.72 122.4 81 151.040 9.249 8.768 15.003 21.142 15.003 34.86s-5.755 26.092-14.982 34.84l-0.021 0.020c-53.44 50.56-141.76 83.24-225 83.24-59.236-0.056-114.507-16.98-161.282-46.228l1.282 0.748c-45.324 28.573-100.46 45.527-159.556 45.527-83.974 0-159.953-34.233-214.742-89.505l-0.022-0.022c-55.527-56.679-89.795-134.37-89.795-220.065 0-2.987 0.042-5.965 0.124-8.932l-0.010 0.437c3.612-146.132 66.504-276.898 165.437-369.697l0.283-0.263c31.336-29.722 73.781-48 120.495-48 0.065 0 0.13 0 0.195 0h350.75c0.071 0 0.155 0 0.239 0 50.417 0 95.868 21.262 127.876 55.309l0.085 0.092c27.697 29.652 52.104 62.97 72.273 98.982l1.327 2.578c6.28 11.52 12 22.84 16.56 33.64 6.36 14.72 12.96 29.92 4.48 49.4zM743.080 168.72c-14.452-15.239-34.845-24.721-57.452-24.721-0.164 0-0.329 0.001-0.493 0.002h-350.735c-0.082 0-0.179 0-0.276 0-21.131 0-40.334 8.255-54.56 21.715l0.037-0.035c-81.206 76.164-132.673 183.198-135.59 302.273l-0.010 0.527c-0.054 1.803-0.084 3.925-0.084 6.054 0 59.31 23.69 113.088 62.123 152.386l-0.039-0.040c36.96 37.731 88.435 61.121 145.372 61.121 0.221 0 0.441 0 0.662-0.001h2.846c48.341-0.541 92.585-17.649 127.424-45.901l-0.384 0.301c8.139-6.56 18.606-10.53 30-10.53s21.861 3.97 30.092 10.602l-0.092-0.072c34.975 28.402 80.046 45.602 129.134 45.602 0.333 0 0.665-0.001 0.997-0.002h-0.051c43.723-0.533 84.784-11.417 121.007-30.306l-1.487 0.706c-46.48-57.040-71.52-118.92-71.52-178.4 0-93.32 29.88-171.56 85-224.76-17.859-32.925-38.435-61.319-62.178-86.715l0.218 0.235zM515 908c14.586 18.683 32.435 34.068 52.798 45.505l0.882 0.455c6.711 3.788 14.735 6.020 23.28 6.020 26.521 0 48.020-21.499 48.020-48.020 0-17.976-9.877-33.644-24.5-41.875l-0.241-0.125c-9.682-5.413-17.81-12.431-24.306-20.781l-0.134-0.179c-8.871-11.321-22.544-18.528-37.9-18.528-26.525 0-48.028 21.503-48.028 48.028 0 11.169 3.812 21.447 10.207 29.605l-0.079-0.105z" />
<glyph unicode="&#xe91d;" glyph-name="apple-podcasts-logo-bold" data-tags="apple-podcasts-logo-bold" d="M645.44 440c16.642 24.839 26.56 55.402 26.56 88.282 0 88.366-71.634 160-160 160s-160-71.634-160-160c0-32.88 9.918-63.444 26.925-88.862l-0.365 0.58c-6.747-5.39-12.679-11.31-17.908-17.819l-0.172-0.221c-15.268-18.91-24.509-43.24-24.509-69.728 0-8.848 1.031-17.455 2.98-25.708l-0.15 0.756 51-224c11.473-50.306 55.83-87.281 108.822-87.281 0.161 0 0.322 0 0.483 0.001h25.815c0.144-0.001 0.314-0.001 0.485-0.001 52.949 0 97.276 36.914 108.65 86.411l0.145 0.75 51 224c1.798 7.497 2.829 16.104 2.829 24.952 0 26.488-9.241 50.817-24.675 69.94l0.166-0.212c-5.4 6.779-11.333 12.738-17.86 17.989l-0.22 0.171zM512 592c35.346 0 64-28.654 64-64s-28.654-64-64-64c-35.346 0-64 28.654-64 64v0c0 35.346 28.654 64 64 64v0zM591.56 348.48l-50.96-224c-1.664-7.197-8.019-12.48-15.608-12.48-0.025 0-0.051 0-0.076 0h-25.836c-0.021 0-0.047 0-0.072 0-7.589 0-13.944 5.283-15.587 12.372l-0.021 0.108-50.96 224c-0.267 1.083-0.42 2.326-0.42 3.605 0 3.756 1.32 7.203 3.523 9.903l-0.022-0.028c2.948 3.684 7.439 6.026 12.478 6.040h128.002c0.023 0 0.051 0 0.078 0 5.057 0 9.565-2.346 12.498-6.008l0.025-0.032c2.123-2.652 3.408-6.056 3.408-9.76 0-1.321-0.163-2.603-0.471-3.828l0.023 0.108zM944 448c0.001-0.365 0.002-0.796 0.002-1.227 0-119.175-48.595-227-127.050-304.741l-0.032-0.032c-8.652-8.49-20.519-13.731-33.61-13.731-26.51 0-48 21.49-48 48 0 13.151 5.288 25.066 13.854 33.735l-0.005-0.005c61.059 60.846 98.84 145.019 98.84 238.015 0 185.568-150.432 336-336 336s-336-150.432-336-336c0-92.996 37.781-177.169 98.83-238.005l0.010-0.010c8.884-8.718 14.39-20.85 14.39-34.269 0-26.51-21.49-48-48-48-13.359 0-25.444 5.457-34.146 14.265l-0.005 0.005c-78.505 78.231-127.080 186.452-127.080 306.019 0 238.587 193.413 432 432 432s432-193.413 432-432c0-0.007 0-0.013 0-0.020v0.001z" />
<glyph unicode="&#xe91e;" glyph-name="app-store-logo-bold" data-tags="app-store-logo-bold" d="M976 320c0-26.51-21.49-48-48-48v0h-125.32l70.64-119.56c4.376-7.098 6.968-15.7 6.968-24.908 0-26.51-21.49-48-48-48-17.701 0-33.164 9.581-41.485 23.84l-0.123 0.228-227.080 384.4c-3.838 6.744-6.101 14.817-6.101 23.419 0 26.51 21.49 48 48 48 17.107 0 32.124-8.949 40.624-22.421l0.117-0.198 99.68-168.8h182.080c26.51 0 48-21.49 48-48v0zM532.6 368h-143.040l259.76 439.56c4.376 7.098 6.968 15.7 6.968 24.908 0 26.51-21.49 48-48 48-17.701 0-33.164-9.581-41.485-23.84l-0.123-0.228-54.68-92.4-54.68 92.4c-8.445 14.487-23.908 24.068-41.608 24.068-26.51 0-48-21.49-48-48 0-9.208 2.593-17.81 7.087-25.116l-0.119 0.208 81.56-138.040-178.16-301.52h-182.080c-26.51 0-48-21.49-48-48s21.49-48 48-48v0h436.6c26.51 0 48 21.49 48 48s-21.49 48-48 48v0zM235.32 201.32c-6.983 4.192-15.408 6.672-24.413 6.672-17.491 0-32.796-9.355-41.186-23.334l-0.121-0.218-18.92-32c-4.376-7.098-6.968-15.7-6.968-24.908 0-26.51 21.49-48 48-48 17.701 0 33.164 9.581 41.485 23.84l0.123 0.228 18.92 32c4.186 6.978 6.661 15.398 6.661 24.395 0 17.503-9.368 32.817-23.363 41.204l-0.218 0.121z" />
<glyph unicode="&#xe91f;" glyph-name="app-window-bold" data-tags="app-window-bold" d="M864 816h-704c-44.183 0-80-35.817-80-80v0-576c0-44.183 35.817-80 80-80v0h704c44.183 0 80 35.817 80 80v0 576c0 44.183-35.817 80-80 80v0zM848 176h-672v544h672zM240 592c0 35.346 28.654 64 64 64s64-28.654 64-64c0-35.346-28.654-64-64-64v0c-35.346 0-64 28.654-64 64v0zM432 592c0 35.346 28.654 64 64 64s64-28.654 64-64c0-35.346-28.654-64-64-64v0c-35.346 0-64 28.654-64 64v0z" />
<glyph unicode="&#xe920;" glyph-name="archive-bold" data-tags="archive-bold" d="M896 784h-768c-44.183 0-80-35.817-80-80v0-96c0-0.005 0-0.011 0-0.016 0-38.519 27.223-70.68 63.479-78.292l0.521-0.092v-337.6c0-44.183 35.817-80 80-80v0h640c44.183 0 80 35.817 80 80v0 337.6c36.777 7.704 64 39.865 64 78.384 0 0.006 0 0.011 0 0.017v-0.001 96c0 44.183-35.817 80-80 80v0zM144 688h736v-64h-736zM208 208v320h608v-320zM656 416c0-26.51-21.49-48-48-48v0h-192c-26.51 0-48 21.49-48 48s21.49 48 48 48v0h192c26.51 0 48-21.49 48-48v0z" />
<glyph unicode="&#xe921;" glyph-name="archive-box-bold" data-tags="archive-box-bold" d="M906.92 693.48l-64 128c-8.058 15.848-24.243 26.518-42.92 26.52h-576c-18.677-0.002-34.862-10.672-42.794-26.248l-0.126-0.272-64-128c-3.201-6.257-5.078-13.649-5.080-21.479v-544.001c0-44.183 35.817-80 80-80v0h640c44.183 0 80 35.817 80 80v0 544c-0.002 7.831-1.879 15.223-5.206 21.752l0.126-0.272zM770.32 752l24-48h-564.64l24 48zM208 144v464h608v-464zM673.96 401.96c8.721-8.692 14.118-20.716 14.118-34s-5.396-25.308-14.116-33.999l-128.001-128.001c-8.692-8.721-20.716-14.118-34-14.118s-25.308 5.396-33.999 14.116l-128.001 128.001c-8.701 8.701-14.083 20.722-14.083 34 0 26.556 21.528 48.083 48.083 48.083 13.278 0 25.299-5.382 34-14.083v0l46.040-45.96v156c0 26.51 21.49 48 48 48s48-21.49 48-48v0-156l46.040 46.080c8.682 8.662 20.666 14.018 33.9 14.018 13.294 0 25.326-5.404 34.018-14.136l0.002-0.002z" />
<glyph unicode="&#xe922;" glyph-name="archive-tray-bold" data-tags="archive-tray-bold" d="M832 848h-640c-44.183 0-80-35.817-80-80v0-640c0-44.183 35.817-80 80-80v0h640c44.183 0 80 35.817 80 80v0 640c0 44.183-35.817 80-80 80v0zM816 752v-384h-98.76c-0.064 0-0.139 0-0.215 0-22.023 0-41.952-8.961-56.341-23.436l-0.004-0.004-72.68-72.56h-152l-72.68 72.56c-14.393 14.479-34.322 23.44-56.345 23.44-0.076 0-0.151 0-0.227 0h-98.748v384zM208 144v128h92l72.56-72.56c14.393-14.479 34.323-23.441 56.345-23.441 0.118 0 0.235 0 0.353 0.001h165.502c0.064 0 0.139 0 0.215 0 22.023 0 41.952 8.961 56.341 23.436l0.004 0.004 72.68 72.56h92v-128zM350.040 462.040c-8.701 8.701-14.083 20.722-14.083 34 0 26.556 21.528 48.083 48.083 48.083 13.278 0 25.299-5.382 34-14.083v0l45.96-46.040v172c0 26.51 21.49 48 48 48s48-21.49 48-48v0-172l46.040 46.080c8.701 8.701 20.722 14.083 34 14.083 26.556 0 48.083-21.528 48.083-48.083 0-13.278-5.382-25.299-14.083-34l-128-128c-8.692-8.721-20.716-14.118-34-14.118s-25.308 5.396-33.999 14.116l-0.001 0.001z" />
<glyph unicode="&#xe923;" glyph-name="armchair-bold" data-tags="armchair-bold" d="M880 645.88v26.12c-0.114 97.156-78.844 175.886-175.989 176h-384.011c-97.156-0.114-175.886-78.844-176-175.989v-26.131c-84.415-27.77-144.282-105.894-144.282-198s59.867-170.229 142.812-197.58l1.47-0.42v-89.88c0-44.183 35.817-80 80-80v0h576c44.183 0 80 35.817 80 80v0 89.96c84.415 27.77 144.282 105.894 144.282 198s-59.867 170.229-142.812 197.58l-1.47 0.42zM320 752h384c44.183 0 80-35.817 80-80v0-18.48c-94.809-15.336-167.508-92.884-175.272-188.781l-0.048-0.739h-193.36c-7.812 96.636-80.511 174.184-174.122 189.36l-1.198 0.16v18.48c0 44.183 35.817 80 80 80v0zM827.24 336.56c-24.38-2.501-43.238-22.928-43.24-47.76v0-112.8h-544v112.8c-0.002 24.832-18.86 45.259-43.035 47.743l-0.205 0.017c-56.829 5.901-100.76 53.537-100.76 111.435 0 61.856 50.144 112 112 112 61.854 0 111.997-50.141 112-111.994v0-144c0-26.51 21.49-48 48-48s48 21.49 48 48v0 64h192v-64c0-26.51 21.49-48 48-48s48 21.49 48 48v0 144c0.003 61.854 50.146 111.995 112 111.995 61.856 0 112-50.144 112-112 0-57.897-43.931-105.534-100.278-111.394l-0.482-0.041z" />
<glyph unicode="&#xe924;" glyph-name="arrow-arc-left-bold" data-tags="arrow-arc-left-bold" d="M944 224c0-26.51-21.49-48-48-48s-48 21.49-48 48v0c0 0.007 0 0.016 0 0.024 0 185.568-150.432 336-336 336-92.79 0-176.795-37.613-237.6-98.424v0l-61.96-61.6h139.56c26.51 0 48-21.49 48-48s-21.49-48-48-48v0h-256c-26.51 0-48 21.49-48 48v0 256c0 26.51 21.49 48 48 48s48-21.49 48-48v0-140.64l62.64 62.2c78.166 78.111 186.121 126.42 305.36 126.42 238.58 0 431.989-193.402 432-431.979v0z" />
<glyph unicode="&#xe925;" glyph-name="arrow-arc-right-bold" data-tags="arrow-arc-right-bold" d="M976 608v-256c0-26.51-21.49-48-48-48v0h-256c-26.51 0-48 21.49-48 48s21.49 48 48 48v0h139.6l-61.92 61.48c-60.813 60.859-144.85 98.504-237.68 98.504-185.562 0-335.991-150.423-336-335.983v-0.001c0-26.51-21.49-48-48-48s-48 21.49-48 48v0c0 0.006 0 0.013 0 0.020 0 238.587 193.413 432 432 432 119.299 0 227.303-48.357 305.48-126.54v0l62.52-62.12v140.64c0 26.51 21.49 48 48 48s48-21.49 48-48v0z" />
<glyph unicode="&#xe926;" glyph-name="arrow-bend-double-up-left-bold" data-tags="arrow-bend-double-up-left-bold" d="M353.96 385.96c8.701-8.701 14.083-20.722 14.083-34 0-26.556-21.528-48.083-48.083-48.083-13.278 0-25.299 5.382-34 14.083l-192 192c-8.721 8.692-14.118 20.716-14.118 34s5.396 25.308 14.116 33.999l192.001 192.001c8.701 8.701 20.722 14.083 34 14.083 26.556 0 48.083-21.528 48.083-48.083 0-13.278-5.382-25.299-14.083-34l-157.96-157.96zM512 592h-44l110.080 110.080c8.701 8.701 14.083 20.722 14.083 34 0 26.556-21.528 48.083-48.083 48.083-13.278 0-25.299-5.382-34-14.083l-192-192c-8.721-8.692-14.118-20.716-14.118-34s5.396-25.308 14.116-33.999l192.001-192.001c8.701-8.701 20.722-14.083 34-14.083 26.556 0 48.083 21.528 48.083 48.083 0 13.278-5.382 25.299-14.083 34v0l-110.080 109.92h44c185.485-0.205 335.795-150.515 336-335.98v-0.020c0-26.51 21.49-48 48-48s48 21.49 48 48v0c-0.273 238.477-193.523 431.727-431.974 432h-0.026z" />
<glyph unicode="&#xe927;" glyph-name="arrow-bend-double-up-right-bold" data-tags="arrow-bend-double-up-right-bold" d="M929.96 510.040l-192-192c-8.701-8.701-20.722-14.083-34-14.083-26.556 0-48.083 21.528-48.083 48.083 0 13.278 5.382 25.299 14.083 34l158.040 157.96-157.96 158.080c-8.701 8.701-14.083 20.722-14.083 34 0 26.556 21.528 48.083 48.083 48.083 13.278 0 25.299-5.382 34-14.083l192-192c8.71-8.69 14.098-20.706 14.098-33.98 0-13.314-5.421-25.362-14.175-34.057l-0.003-0.003zM705.96 578.040l-192 192c-8.701 8.701-20.722 14.083-34 14.083-26.556 0-48.083-21.528-48.083-48.083 0-13.278 5.382-25.299 14.083-34l110.040-110.040h-44c-238.477-0.273-431.727-193.523-432-431.974v-0.026c0-26.51 21.49-48 48-48s48 21.49 48 48v0c0.205 185.485 150.515 335.795 335.98 336h44.020l-110.080-110.040c-8.701-8.701-14.083-20.722-14.083-34 0-26.556 21.528-48.083 48.083-48.083 13.278 0 25.299 5.382 34 14.083l192 192c8.733 8.694 14.138 20.726 14.138 34.020 0 13.274-5.388 25.29-14.097 33.979l-0.001 0.001z" />
<glyph unicode="&#xe928;" glyph-name="arrow-bend-down-left-bold" data-tags="arrow-bend-down-left-bold" d="M944 736c-0.273-238.477-193.523-431.727-431.974-432h-268.026l110.080-110.040c8.701-8.701 14.083-20.722 14.083-34 0-26.556-21.528-48.083-48.083-48.083-13.278 0-25.299 5.382-34 14.083l-192 192c-8.721 8.692-14.118 20.716-14.118 34s5.396 25.308 14.116 33.999l192.001 192.001c8.701 8.701 20.722 14.083 34 14.083 26.556 0 48.083-21.528 48.083-48.083 0-13.278-5.382-25.299-14.083-34v0l-110.080-109.96h268c185.485 0.205 335.795 150.515 336 335.98v0.020c0 26.51 21.49 48 48 48s48-21.49 48-48v0z" />
<glyph unicode="&#xe929;" glyph-name="arrow-bend-down-right-bold" data-tags="arrow-bend-down-right-bold" d="M929.96 318.040l-192-192c-8.701-8.701-20.722-14.083-34-14.083-26.556 0-48.083 21.528-48.083 48.083 0 13.278 5.382 25.299 14.083 34l110.040 109.96h-268c-238.477 0.273-431.727 193.523-432 431.974v0.026c0 26.51 21.49 48 48 48s48-21.49 48-48v0c0.205-185.485 150.515-335.795 335.98-336h268.020l-110.080 110.040c-8.701 8.701-14.083 20.722-14.083 34 0 26.556 21.528 48.083 48.083 48.083 13.278 0 25.299-5.382 34-14.083l192-192c8.733-8.694 14.138-20.726 14.138-34.020 0-13.274-5.388-25.29-14.097-33.979l-0.001-0.001z" />
<glyph unicode="&#xe92a;" glyph-name="arrow-bend-left-down-bold" data-tags="arrow-bend-left-down-bold" d="M848 832c0-26.51-21.49-48-48-48v0c-185.485-0.205-335.795-150.515-336-335.98v-268.020l110.040 110.080c8.701 8.701 20.722 14.083 34 14.083 26.556 0 48.083-21.528 48.083-48.083 0-13.278-5.382-25.299-14.083-34l-192-192c-8.692-8.721-20.716-14.118-34-14.118s-25.308 5.396-33.999 14.116l-192.001 192.001c-8.701 8.701-14.083 20.722-14.083 34 0 26.556 21.528 48.083 48.083 48.083 13.278 0 25.299-5.382 34-14.083v0l109.96-110.080v268c0.273 238.477 193.523 431.727 431.974 432h0.026c26.51 0 48-21.49 48-48v0z" />
<glyph unicode="&#xe92b;" glyph-name="arrow-bend-left-up-bold" data-tags="arrow-bend-left-up-bold" d="M848 64c0-26.51-21.49-48-48-48v0c-238.477 0.273-431.727 193.523-432 431.974v268.026l-110.040-109.96c-8.701-8.701-20.722-14.083-34-14.083-26.556 0-48.083 21.528-48.083 48.083 0 13.278 5.382 25.299 14.083 34l192 192c8.692 8.721 20.716 14.118 34 14.118s25.308-5.396 33.999-14.116l192.001-192.001c8.701-8.701 14.083-20.722 14.083-34 0-26.556-21.528-48.083-48.083-48.083-13.278 0-25.299 5.382-34 14.083l-109.96 109.96v-268c0.205-185.485 150.515-335.795 335.98-336h0.020c26.51 0 48-21.49 48-48v0z" />
<glyph unicode="&#xe92c;" glyph-name="arrow-bend-right-down-bold" data-tags="arrow-bend-right-down-bold" d="M833.96 222.040l-192-192c-8.692-8.721-20.716-14.118-34-14.118s-25.308 5.396-33.999 14.116l-192.001 192.001c-8.701 8.701-14.083 20.722-14.083 34 0 26.556 21.528 48.083 48.083 48.083 13.278 0 25.299-5.382 34-14.083l110.040-110.040v268c-0.205 185.485-150.515 335.795-335.98 336h-0.020c-26.51 0-48 21.49-48 48s21.49 48 48 48v0c238.477-0.273 431.727-193.523 432-431.974v-268.026l110.040 110.080c8.701 8.701 20.722 14.083 34 14.083 26.556 0 48.083-21.528 48.083-48.083 0-13.278-5.382-25.299-14.083-34v0z" />
<glyph unicode="&#xe92d;" glyph-name="arrow-bend-right-up-bold" data-tags="arrow-bend-right-up-bold" d="M833.96 606.040c-8.692-8.721-20.716-14.118-34-14.118s-25.308 5.396-33.999 14.116l-109.961 109.961v-268c-0.273-238.477-193.523-431.727-431.974-432h-0.026c-26.51 0-48 21.49-48 48s21.49 48 48 48v0c185.485 0.205 335.795 150.515 336 335.98v268.020l-110.040-109.96c-8.701-8.701-20.722-14.083-34-14.083-26.556 0-48.083 21.528-48.083 48.083 0 13.278 5.382 25.299 14.083 34l192 192c8.692 8.721 20.716 14.118 34 14.118s25.308-5.396 33.999-14.116l192.001-192.001c8.721-8.692 14.118-20.716 14.118-34s-5.396-25.308-14.116-33.999l-0.001-0.001z" />
<glyph unicode="&#xe92e;" glyph-name="arrow-bend-up-left-bold" data-tags="arrow-bend-up-left-bold" d="M944 160c0-26.51-21.49-48-48-48s-48 21.49-48 48v0c-0.205 185.485-150.515 335.795-335.98 336h-268.020l110.080-110.040c8.701-8.701 14.083-20.722 14.083-34 0-26.556-21.528-48.083-48.083-48.083-13.278 0-25.299 5.382-34 14.083l-192 192c-8.721 8.692-14.118 20.716-14.118 34s5.396 25.308 14.116 33.999l192.001 192.001c8.701 8.701 20.722 14.083 34 14.083 26.556 0 48.083-21.528 48.083-48.083 0-13.278-5.382-25.299-14.083-34v0l-110.080-109.96h268c238.477-0.273 431.727-193.523 432-431.974v-0.026z" />
<glyph unicode="&#xe92f;" glyph-name="arrow-bend-up-right-bold" data-tags="arrow-bend-up-right-bold" d="M929.96 510.040l-192-192c-8.701-8.701-20.722-14.083-34-14.083-26.556 0-48.083 21.528-48.083 48.083 0 13.278 5.382 25.299 14.083 34l110.040 109.96h-268c-185.485-0.205-335.795-150.515-336-335.98v-0.020c0-26.51-21.49-48-48-48s-48 21.49-48 48v0c0.273 238.477 193.523 431.727 431.974 432h268.026l-109.96 110.080c-8.701 8.701-14.083 20.722-14.083 34 0 26.556 21.528 48.083 48.083 48.083 13.278 0 25.299-5.382 34-14.083l192-192c8.71-8.69 14.098-20.706 14.098-33.98 0-13.314-5.421-25.362-14.175-34.057l-0.003-0.003z" />
<glyph unicode="&#xe930;" glyph-name="arrow-circle-down-bold" data-tags="arrow-circle-down-bold" d="M512 880c-238.587 0-432-193.413-432-432s193.413-432 432-432c238.587 0 432 193.413 432 432v0c-0.273 238.477-193.523 431.727-431.974 432h-0.026zM512 112c-185.568 0-336 150.432-336 336s150.432 336 336 336c185.568 0 336-150.432 336-336v0c-0.205-185.485-150.515-335.795-335.98-336h-0.020zM673.96 449.96c8.721-8.692 14.118-20.716 14.118-34s-5.396-25.308-14.116-33.999l-128.001-128.001c-8.692-8.721-20.716-14.118-34-14.118s-25.308 5.396-33.999 14.116l-128.001 128.001c-8.701 8.701-14.083 20.722-14.083 34 0 26.556 21.528 48.083 48.083 48.083 13.278 0 25.299-5.382 34-14.083v0l46.040-45.96v204c0 26.51 21.49 48 48 48s48-21.49 48-48v0-204l46.040 46.080c8.682 8.662 20.666 14.018 33.9 14.018 13.294 0 25.326-5.404 34.018-14.136l0.002-0.002z" />
<glyph unicode="&#xe931;" glyph-name="arrow-circle-down-left-bold" data-tags="arrow-circle-down-left-bold" d="M512 880c-238.587 0-432-193.413-432-432s193.413-432 432-432c238.587 0 432 193.413 432 432v0c-0.273 238.477-193.523 431.727-431.974 432h-0.026zM512 112c-185.568 0-336 150.432-336 336s150.432 336 336 336c185.568 0 336-150.432 336-336v0c-0.205-185.485-150.515-335.795-335.98-336h-0.020zM673.96 609.96c8.721-8.692 14.118-20.716 14.118-34s-5.396-25.308-14.116-33.999l-173.961-173.961h76c26.51 0 48-21.49 48-48s-21.49-48-48-48v0h-192c-26.51 0-48 21.49-48 48v0 192c0 26.51 21.49 48 48 48s48-21.49 48-48v0-76l174.040 174.080c8.682 8.662 20.666 14.018 33.9 14.018 13.294 0 25.326-5.404 34.018-14.136l0.002-0.002z" />
<glyph unicode="&#xe932;" glyph-name="arrow-circle-down-right-bold" data-tags="arrow-circle-down-right-bold" d="M512 880c-238.587 0-432-193.413-432-432s193.413-432 432-432c238.587 0 432 193.413 432 432v0c-0.273 238.477-193.523 431.727-431.974 432h-0.026zM512 112c-185.568 0-336 150.432-336 336s150.432 336 336 336c185.568 0 336-150.432 336-336v0c-0.205-185.485-150.515-335.795-335.98-336h-0.020zM688 512v-192c0-26.51-21.49-48-48-48v0h-192c-26.51 0-48 21.49-48 48s21.49 48 48 48v0h76l-173.96 174.040c-8.701 8.701-14.083 20.722-14.083 34 0 26.556 21.528 48.083 48.083 48.083 13.278 0 25.299-5.382 34-14.083l173.96-174.040v76c0 26.51 21.49 48 48 48s48-21.49 48-48v0z" />
<glyph unicode="&#xe933;" glyph-name="arrow-circle-left-bold" data-tags="arrow-circle-left-bold" d="M512 880c-238.587 0-432-193.413-432-432s193.413-432 432-432c238.587 0 432 193.413 432 432v0c-0.273 238.477-193.523 431.727-431.974 432h-0.026zM512 112c-185.568 0-336 150.432-336 336s150.432 336 336 336c185.568 0 336-150.432 336-336v0c-0.205-185.485-150.515-335.795-335.98-336h-0.020zM720 448c0-26.51-21.49-48-48-48v0h-204l46.080-46.040c8.701-8.701 14.083-20.722 14.083-34 0-26.556-21.528-48.083-48.083-48.083-13.278 0-25.299 5.382-34 14.083l-128 128c-8.721 8.692-14.118 20.716-14.118 34s5.396 25.308 14.116 33.999l128.001 128.001c8.701 8.701 20.722 14.083 34 14.083 26.556 0 48.083-21.528 48.083-48.083 0-13.278-5.382-25.299-14.083-34v0l-46.080-45.96h204c26.51 0 48-21.49 48-48v0z" />
<glyph unicode="&#xe934;" glyph-name="arrow-circle-right-bold" data-tags="arrow-circle-right-bold" d="M512 880c-238.587 0-432-193.413-432-432s193.413-432 432-432c238.587 0 432 193.413 432 432v0c-0.273 238.477-193.523 431.727-431.974 432h-0.026zM512 112c-185.568 0-336 150.432-336 336s150.432 336 336 336c185.568 0 336-150.432 336-336v0c-0.205-185.485-150.515-335.795-335.98-336h-0.020zM705.96 481.96c8.721-8.692 14.118-20.716 14.118-34s-5.396-25.308-14.116-33.999l-128.001-128.001c-8.701-8.701-20.722-14.083-34-14.083-26.556 0-48.083 21.528-48.083 48.083 0 13.278 5.382 25.299 14.083 34l46.040 46.040h-204c-26.51 0-48 21.49-48 48s21.49 48 48 48v0h204l-46.080 46.040c-8.701 8.701-14.083 20.722-14.083 34 0 26.556 21.528 48.083 48.083 48.083 13.278 0 25.299-5.382 34-14.083v0z" />
<glyph unicode="&#xe935;" glyph-name="arrow-circle-up-bold" data-tags="arrow-circle-up-bold" d="M512 880c-238.587 0-432-193.413-432-432s193.413-432 432-432c238.587 0 432 193.413 432 432v0c-0.273 238.477-193.523 431.727-431.974 432h-0.026zM512 112c-185.568 0-336 150.432-336 336s150.432 336 336 336c185.568 0 336-150.432 336-336v0c-0.205-185.485-150.515-335.795-335.98-336h-0.020zM673.96 513.96c8.701-8.701 14.083-20.722 14.083-34 0-26.556-21.528-48.083-48.083-48.083-13.278 0-25.299 5.382-34 14.083v0l-45.96 46.040v-204c0-26.51-21.49-48-48-48s-48 21.49-48 48v0 204l-46.040-46.080c-8.701-8.701-20.722-14.083-34-14.083-26.556 0-48.083 21.528-48.083 48.083 0 13.278 5.382 25.299 14.083 34l128 128c8.692 8.721 20.716 14.118 34 14.118s25.308-5.396 33.999-14.116l0.001-0.001z" />
<glyph unicode="&#xe936;" glyph-name="arrow-circle-up-left-bold" data-tags="arrow-circle-up-left-bold" d="M512 880c-238.587 0-432-193.413-432-432s193.413-432 432-432c238.587 0 432 193.413 432 432v0c-0.273 238.477-193.523 431.727-431.974 432h-0.026zM512 112c-185.568 0-336 150.432-336 336s150.432 336 336 336c185.568 0 336-150.432 336-336v0c-0.205-185.485-150.515-335.795-335.98-336h-0.020zM673.96 353.96c8.701-8.701 14.083-20.722 14.083-34 0-26.556-21.528-48.083-48.083-48.083-13.278 0-25.299 5.382-34 14.083l-173.96 174.040v-76c0-26.51-21.49-48-48-48s-48 21.49-48 48v0 192c0 26.51 21.49 48 48 48v0h192c26.51 0 48-21.49 48-48s-21.49-48-48-48v0h-76z" />
<glyph unicode="&#xe937;" glyph-name="arrow-circle-up-right-bold" data-tags="arrow-circle-up-right-bold" d="M512 880c-238.587 0-432-193.413-432-432s193.413-432 432-432c238.587 0 432 193.413 432 432v0c-0.273 238.477-193.523 431.727-431.974 432h-0.026zM512 112c-185.568 0-336 150.432-336 336s150.432 336 336 336c185.568 0 336-150.432 336-336v0c-0.205-185.485-150.515-335.795-335.98-336h-0.020zM688 576v-192c0-26.51-21.49-48-48-48s-48 21.49-48 48v0 76l-174.040-174.080c-8.701-8.701-20.722-14.083-34-14.083-26.556 0-48.083 21.528-48.083 48.083 0 13.278 5.382 25.299 14.083 34l174.040 174.080h-76c-26.51 0-48 21.49-48 48s21.49 48 48 48v0h192c26.51 0 48-21.49 48-48v0z" />
<glyph unicode="&#xe938;" glyph-name="arrow-clockwise-bold" data-tags="arrow-clockwise-bold" d="M976 736v-192c0-26.51-21.49-48-48-48v0h-192c-26.51 0-48 21.49-48 48s21.49 48 48 48v0h68.4l-76 69.52c-0.52 0.48-1.040 0.96-1.52 1.48-55.007 54.974-130.98 88.974-214.895 88.974-167.895 0-304-136.105-304-304 0-166.493 133.843-301.726 299.803-303.972l0.212-0.002h4c0.216-0.001 0.472-0.001 0.728-0.001 80.602 0 153.831 31.564 208.003 83.005l-0.131-0.124c8.582 8.123 20.198 13.118 32.98 13.118 26.519 0 48.018-21.498 48.018-48.018 0-13.737-5.769-26.127-15.015-34.879l-0.022-0.021c-71.149-67.541-167.55-109.081-273.653-109.081-0.319 0-0.637 0-0.955 0.001h-5.431c-218.476 3.177-394.362 181.028-394.362 399.96 0 220.914 179.086 400 400 400 109.98 0 209.594-44.386 281.904-116.222l-0.022 0.021 85.96-78.64v82.88c0 26.51 21.49 48 48 48s48-21.49 48-48v0z" />
<glyph unicode="&#xe939;" glyph-name="arrow-counter-clockwise-bold" data-tags="arrow-counter-clockwise-bold" d="M912 448c0-0.011 0-0.023 0-0.036 0-219.030-176.044-396.942-394.356-399.961l-0.284-0.003h-5.36c-0.249-0.001-0.543-0.001-0.838-0.001-106.114 0-202.517 41.573-273.812 109.321l0.17-0.16c-9.273 8.771-15.044 21.162-15.044 34.9 0 26.512 21.492 48.004 48.004 48.004 12.774 0 24.382-4.989 32.982-13.125l-0.022 0.021c54.32-51.368 127.818-82.949 208.692-82.949 167.895 0 304 136.105 304 304s-136.105 304-304 304c-83.953 0-159.958-34.031-214.972-89.051v0c-0.52-0.52-1-1-1.56-1.48l-76.040-69.48h68.44c26.51 0 48-21.49 48-48s-21.49-48-48-48v0h-192c-26.51 0-48 21.49-48 48v0 192c0 26.51 21.49 48 48 48s48-21.49 48-48v0-82.88l85.92 78.64c72.309 71.932 172.002 116.397 282.080 116.397 220.914 0 400-179.086 400-400 0-0.055 0-0.11 0-0.165v0.008z" />
<glyph unicode="&#xe93a;" glyph-name="arrow-down-bold" data-tags="arrow-down-bold" d="M833.96 350.040l-288-288c-8.692-8.721-20.716-14.118-34-14.118s-25.308 5.396-33.999 14.116l-288.001 288.001c-8.701 8.701-14.083 20.722-14.083 34 0 26.556 21.528 48.083 48.083 48.083 13.278 0 25.299-5.382 34-14.083l206.040-206.040v588c0 26.51 21.49 48 48 48s48-21.49 48-48v0-588l206.040 206.080c8.701 8.701 20.722 14.083 34 14.083 26.556 0 48.083-21.528 48.083-48.083 0-13.278-5.382-25.299-14.083-34v0z" />
<glyph unicode="&#xe93b;" glyph-name="arrow-down-left-bold" data-tags="arrow-down-left-bold" d="M801.96 670.080l-429.96-430.080h300c26.51 0 48-21.49 48-48s-21.49-48-48-48v0h-416c-26.51 0-48 21.49-48 48v0 416c0 26.51 21.49 48 48 48s48-21.49 48-48v0-300l430.040 429.96c8.701 8.701 20.722 14.083 34 14.083 26.556 0 48.083-21.528 48.083-48.083 0-13.278-5.382-25.299-14.083-34v0z" />
<glyph unicode="&#xe93c;" glyph-name="arrow-down-right-bold" data-tags="arrow-down-right-bold" d="M816 608v-416c0-26.51-21.49-48-48-48v0h-416c-26.51 0-48 21.49-48 48s21.49 48 48 48v0h300l-429.96 430.080c-8.701 8.701-14.083 20.722-14.083 34 0 26.556 21.528 48.083 48.083 48.083 13.278 0 25.299-5.382 34-14.083l429.96-430.080v300c0 26.51 21.49 48 48 48s48-21.49 48-48v0z" />
<glyph unicode="&#xe93d;" glyph-name="arrow-elbow-down-left-bold" data-tags="arrow-elbow-down-left-bold" d="M816 832v-576c0-26.51-21.49-48-48-48v0h-460l110.080-110.040c8.701-8.701 14.083-20.722 14.083-34 0-26.556-21.528-48.083-48.083-48.083-13.278 0-25.299 5.382-34 14.083l-192 192c-8.721 8.692-14.118 20.716-14.118 34s5.396 25.308 14.116 33.999l192.001 192.001c8.701 8.701 20.722 14.083 34 14.083 26.556 0 48.083-21.528 48.083-48.083 0-13.278-5.382-25.299-14.083-34v0l-110.080-109.96h412v528c0 26.51 21.49 48 48 48s48-21.49 48-48v0z" />
<glyph unicode="&#xe93e;" glyph-name="arrow-elbow-down-right-bold" data-tags="arrow-elbow-down-right-bold" d="M865.96 222.040l-192-192c-8.701-8.701-20.722-14.083-34-14.083-26.556 0-48.083 21.528-48.083 48.083 0 13.278 5.382 25.299 14.083 34l110.040 109.96h-460c-26.51 0-48 21.49-48 48v0 576c0 26.51 21.49 48 48 48s48-21.49 48-48v0-528h412l-110.080 110.040c-8.701 8.701-14.083 20.722-14.083 34 0 26.556 21.528 48.083 48.083 48.083 13.278 0 25.299-5.382 34-14.083l192-192c8.733-8.694 14.138-20.726 14.138-34.020 0-13.274-5.388-25.29-14.097-33.979l-0.001-0.001z" />
<glyph unicode="&#xe93f;" glyph-name="arrow-elbow-left-bold" data-tags="arrow-elbow-left-bold" d="M961.96 542.040l-384-384c-8.692-8.721-20.716-14.118-34-14.118s-25.308 5.396-33.999 14.116l-365.961 365.961v-172c0-26.51-21.49-48-48-48s-48 21.49-48 48v0 288c0 26.51 21.49 48 48 48v0h288c26.51 0 48-21.49 48-48s-21.49-48-48-48v0h-172l332-332 350.040 350.080c8.701 8.701 20.722 14.083 34 14.083 26.556 0 48.083-21.528 48.083-48.083 0-13.278-5.382-25.299-14.083-34v0z" />
<glyph unicode="&#xe940;" glyph-name="arrow-elbow-left-down-bold" data-tags="arrow-elbow-left-down-bold" d="M944 704c0-26.51-21.49-48-48-48v0h-528v-412l110.040 110.080c8.701 8.701 20.722 14.083 34 14.083 26.556 0 48.083-21.528 48.083-48.083 0-13.278-5.382-25.299-14.083-34l-192-192c-8.692-8.721-20.716-14.118-34-14.118s-25.308 5.396-33.999 14.116l-192.001 192.001c-8.701 8.701-14.083 20.722-14.083 34 0 26.556 21.528 48.083 48.083 48.083 13.278 0 25.299-5.382 34-14.083v0l109.96-110.080v460c0 26.51 21.49 48 48 48v0h576c26.51 0 48-21.49 48-48v0z" />
<glyph unicode="&#xe941;" glyph-name="arrow-elbow-left-up-bold" data-tags="arrow-elbow-left-up-bold" d="M944 192c0-26.51-21.49-48-48-48v0h-576c-26.51 0-48 21.49-48 48v0 460l-110.040-109.96c-8.701-8.701-20.722-14.083-34-14.083-26.556 0-48.083 21.528-48.083 48.083 0 13.278 5.382 25.299 14.083 34l192 192c8.692 8.721 20.716 14.118 34 14.118s25.308-5.396 33.999-14.116l192.001-192.001c8.701-8.701 14.083-20.722 14.083-34 0-26.556-21.528-48.083-48.083-48.083-13.278 0-25.299 5.382-34 14.083l-109.96 109.96v-412h528c26.51 0 48-21.49 48-48v0z" />
<glyph unicode="&#xe942;" glyph-name="arrow-elbow-right-bold" data-tags="arrow-elbow-right-bold" d="M976 640v-288c0-26.51-21.49-48-48-48s-48 21.49-48 48v0 172l-366.040-366.080c-8.692-8.721-20.716-14.118-34-14.118s-25.308 5.396-33.999 14.116l-384.001 384.001c-8.701 8.701-14.083 20.722-14.083 34 0 26.556 21.528 48.083 48.083 48.083 13.278 0 25.299-5.382 34-14.083l350.040-349.92 332 332h-172c-26.51 0-48 21.49-48 48s21.49 48 48 48v0h288c26.51 0 48-21.49 48-48v0z" />
<glyph unicode="&#xe943;" glyph-name="arrow-elbow-right-down-bold" data-tags="arrow-elbow-right-down-bold" d="M929.96 286.040l-192-192c-8.692-8.721-20.716-14.118-34-14.118s-25.308 5.396-33.999 14.116l-192.001 192.001c-8.701 8.701-14.083 20.722-14.083 34 0 26.556 21.528 48.083 48.083 48.083 13.278 0 25.299-5.382 34-14.083l110.040-110.040v412h-528c-26.51 0-48 21.49-48 48s21.49 48 48 48v0h576c26.51 0 48-21.49 48-48v0-460l110.040 110.080c8.701 8.701 20.722 14.083 34 14.083 26.556 0 48.083-21.528 48.083-48.083 0-13.278-5.382-25.299-14.083-34v0z" />
<glyph unicode="&#xe944;" glyph-name="arrow-elbow-right-up-bold" data-tags="arrow-elbow-right-up-bold" d="M929.96 542.040c-8.692-8.721-20.716-14.118-34-14.118s-25.308 5.396-33.999 14.116l-109.961 109.961v-460c0-26.51-21.49-48-48-48v0h-576c-26.51 0-48 21.49-48 48s21.49 48 48 48v0h528v412l-110.040-110.080c-8.701-8.701-20.722-14.083-34-14.083-26.556 0-48.083 21.528-48.083 48.083 0 13.278 5.382 25.299 14.083 34l192 192c8.692 8.721 20.716 14.118 34 14.118s25.308-5.396 33.999-14.116l192.001-192.001c8.686-8.686 14.058-20.686 14.058-33.94s-5.372-25.254-14.058-33.94v0z" />
<glyph unicode="&#xe945;" glyph-name="arrow-elbow-up-left-bold" data-tags="arrow-elbow-up-left-bold" d="M816 640v-576c0-26.51-21.49-48-48-48s-48 21.49-48 48v0 528h-412l110.080-110.040c8.701-8.701 14.083-20.722 14.083-34 0-26.556-21.528-48.083-48.083-48.083-13.278 0-25.299 5.382-34 14.083l-192 192c-8.721 8.692-14.118 20.716-14.118 34s5.396 25.308 14.116 33.999l192.001 192.001c8.701 8.701 20.722 14.083 34 14.083 26.556 0 48.083-21.528 48.083-48.083 0-13.278-5.382-25.299-14.083-34v0l-110.080-109.96h460c26.51 0 48-21.49 48-48v0z" />
<glyph unicode="&#xe946;" glyph-name="arrow-elbow-up-right-bold" data-tags="arrow-elbow-up-right-bold" d="M865.96 606.040l-192-192c-8.701-8.701-20.722-14.083-34-14.083-26.556 0-48.083 21.528-48.083 48.083 0 13.278 5.382 25.299 14.083 34l110.040 109.96h-412v-528c0-26.51-21.49-48-48-48s-48 21.49-48 48v0 576c0 26.51 21.49 48 48 48v0h460l-109.96 110.040c-8.701 8.701-14.083 20.722-14.083 34 0 26.556 21.528 48.083 48.083 48.083 13.278 0 25.299-5.382 34-14.083l192-192c8.698-8.688 14.078-20.696 14.078-33.96 0-13.304-5.413-25.344-14.156-34.038l-0.002-0.002z" />
<glyph unicode="&#xe947;" glyph-name="arrow-fat-down-bold" data-tags="arrow-fat-down-bold" d="M940.36 434.36c-7.403 17.548-24.464 29.64-44.35 29.64-0.004 0-0.007 0-0.011 0h-143.999v304c0 44.183-35.817 80-80 80v0h-320c-44.183 0-80-35.817-80-80v0-304h-144c-26.509-0.001-47.998-21.491-47.998-48 0-13.264 5.38-25.272 14.077-33.96v0l384-384c8.692-8.721 20.716-14.118 34-14.118s25.308 5.396 33.999 14.116l384.001 384.001c8.635 8.678 13.974 20.643 13.974 33.856 0 6.664-1.358 13.011-3.812 18.778l0.119-0.314zM512 100l-268 268h76c26.51 0 48 21.49 48 48v0 336h288v-336c0-26.51 21.49-48 48-48v0h76z" />
<glyph unicode="&#xe948;" glyph-name="arrow-fat-left-bold" data-tags="arrow-fat-left-bold" d="M832 688h-304v144c-0.001 26.509-21.491 47.998-48 47.998-13.264 0-25.272-5.38-33.96-14.077v0l-384-384c-8.721-8.692-14.118-20.716-14.118-34s5.396-25.308 14.116-33.999l384.001-384.001c8.688-8.698 20.696-14.078 33.96-14.078 26.51 0 48 21.49 48 48 0 0.056 0 0.111 0 0.167v-0.009 144h304c44.183 0 80 35.817 80 80v0 320c0 44.183-35.817 80-80 80v0zM816 304h-336c-26.51 0-48-21.49-48-48v0-76l-268 268 268 268v-76c0-26.51 21.49-48 48-48v0h336z" />
<glyph unicode="&#xe949;" glyph-name="arrow-fat-line-down-bold" data-tags="arrow-fat-line-down-bold" d="M940.36 434.36c-7.403 17.548-24.464 29.64-44.35 29.64-0.004 0-0.007 0-0.011 0h-143.999v176c0 26.51-21.49 48-48 48v0h-384c-26.51 0-48-21.49-48-48v0-176h-144c-26.509-0.001-47.998-21.491-47.998-48 0-13.264 5.38-25.272 14.077-33.96v0l384-384c8.692-8.721 20.716-14.118 34-14.118s25.308 5.396 33.999 14.116l384.001 384.001c8.635 8.678 13.974 20.643 13.974 33.856 0 6.664-1.358 13.011-3.812 18.778l0.119-0.314zM512 100l-268 268h76c26.51 0 48 21.49 48 48v0 176h288v-176c0-26.51 21.49-48 48-48v0h76zM272 800c0 26.51 21.49 48 48 48v0h384c26.51 0 48-21.49 48-48s-21.49-48-48-48v0h-384c-26.51 0-48 21.49-48 48v0z" />
<glyph unicode="&#xe94a;" glyph-name="arrow-fat-line-left-bold" data-tags="arrow-fat-line-left-bold" d="M704 688h-176v144c0 0.011 0 0.024 0 0.038 0 26.51-21.49 48-48 48-13.264 0-25.272-5.38-33.96-14.077v0l-384-384c-8.721-8.692-14.118-20.716-14.118-34s5.396-25.308 14.116-33.999l384.001-384.001c8.688-8.698 20.696-14.078 33.96-14.078 26.51 0 48 21.49 48 48 0 0.041 0 0.083 0 0.124v-0.006 144h176c26.51 0 48 21.49 48 48v0 384c0 26.51-21.49 48-48 48v0zM656 304h-176c-26.51 0-48-21.49-48-48v0-76l-268 268 268 268v-76c0-26.51 21.49-48 48-48v0h176zM912 640v-384c0-26.51-21.49-48-48-48s-48 21.49-48 48v0 384c0 26.51 21.49 48 48 48s48-21.49 48-48v0z" />
<glyph unicode="&#xe94b;" glyph-name="arrow-fat-line-right-bold" data-tags="arrow-fat-line-right-bold" d="M961.96 481.96l-384 384c-8.688 8.698-20.696 14.078-33.96 14.078-26.51 0-48-21.49-48-48 0-0.013 0-0.027 0-0.040v0.002-144h-176c-26.51 0-48-21.49-48-48v0-384c0-26.51 21.49-48 48-48v0h176v-144c0-0.011 0-0.024 0-0.038 0-26.51 21.49-48 48-48 13.264 0 25.272 5.38 33.96 14.077v0l384 384c8.698 8.688 14.078 20.696 14.078 33.96s-5.38 25.272-14.077 33.96v0zM592 180v76c0 26.51-21.49 48-48 48v0h-176v288h176c26.51 0 48 21.49 48 48v0 76l268-268zM208 640v-384c0-26.51-21.49-48-48-48s-48 21.49-48 48v0 384c0 26.51 21.49 48 48 48s48-21.49 48-48v0z" />
<glyph unicode="&#xe94c;" glyph-name="arrow-fat-lines-down-bold" data-tags="arrow-fat-lines-down-bold" d="M940.36 434.36c-7.403 17.548-24.464 29.64-44.35 29.64-0.004 0-0.007 0-0.011 0h-143.999v16c0 26.51-21.49 48-48 48v0h-384c-26.51 0-48-21.49-48-48v0-16h-144c-0.011 0-0.024 0-0.038 0-26.51 0-48-21.49-48-48 0-13.264 5.38-25.272 14.077-33.96v0l384-384c8.692-8.721 20.716-14.118 34-14.118s25.308 5.396 33.999 14.116l384.001 384.001c8.652 8.681 14.002 20.657 14.002 33.884 0 6.653-1.354 12.99-3.8 18.75l0.119-0.314zM512 100l-268 268h76c26.51 0 48 21.49 48 48v0 16h288v-16c0-26.51 21.49-48 48-48v0h76zM272 800c0 26.51 21.49 48 48 48v0h384c26.51 0 48-21.49 48-48s-21.49-48-48-48v0h-384c-26.51 0-48 21.49-48 48v0zM272 640c0 26.51 21.49 48 48 48v0h384c26.51 0 48-21.49 48-48s-21.49-48-48-48v0h-384c-26.51 0-48 21.49-48 48v0z" />
<glyph unicode="&#xe94d;" glyph-name="arrow-fat-lines-left-bold" data-tags="arrow-fat-lines-left-bold" d="M544 688h-16v144c0 0.011 0 0.024 0 0.038 0 26.51-21.49 48-48 48-13.264 0-25.272-5.38-33.96-14.077v0l-384-384c-8.721-8.692-14.118-20.716-14.118-34s5.396-25.308 14.116-33.999l384.001-384.001c8.688-8.698 20.696-14.078 33.96-14.078 26.51 0 48 21.49 48 48 0 0.041 0 0.083 0 0.124v-0.006 144h16c26.51 0 48 21.49 48 48v0 384c0 26.51-21.49 48-48 48v0zM496 304h-16c-26.51 0-48-21.49-48-48v0-76l-268 268 268 268v-76c0-26.51 21.49-48 48-48v0h16zM912 640v-384c0-26.51-21.49-48-48-48s-48 21.49-48 48v0 384c0 26.51 21.49 48 48 48s48-21.49 48-48v0zM752 640v-384c0-26.51-21.49-48-48-48s-48 21.49-48 48v0 384c0 26.51 21.49 48 48 48s48-21.49 48-48v0z" />
<glyph unicode="&#xe94e;" glyph-name="arrow-fat-lines-right-bold" data-tags="arrow-fat-lines-right-bold" d="M961.96 481.96l-384 384c-8.688 8.698-20.696 14.078-33.96 14.078-26.51 0-48-21.49-48-48 0-0.013 0-0.027 0-0.040v0.002-144h-16c-26.51 0-48-21.49-48-48v0-384c0-26.51 21.49-48 48-48v0h16v-144c0-0.011 0-0.024 0-0.038 0-26.51 21.49-48 48-48 13.264 0 25.272 5.38 33.96 14.077v0l384 384c8.698 8.688 14.078 20.696 14.078 33.96s-5.38 25.272-14.077 33.96v0zM592 180v76c0 26.51-21.49 48-48 48v0h-16v288h16c26.51 0 48 21.49 48 48v0 76l268-268zM208 640v-384c0-26.51-21.49-48-48-48s-48 21.49-48 48v0 384c0 26.51 21.49 48 48 48s48-21.49 48-48v0zM368 640v-384c0-26.51-21.49-48-48-48s-48 21.49-48 48v0 384c0 26.51 21.49 48 48 48s48-21.49 48-48v0z" />
<glyph unicode="&#xe94f;" glyph-name="arrow-fat-lines-up-bold" data-tags="arrow-fat-lines-up-bold" d="M929.96 513.96l-384 384c-8.692 8.721-20.716 14.118-34 14.118s-25.308-5.396-33.999-14.116l-384.001-384.001c-8.698-8.688-14.078-20.696-14.078-33.96 0-26.51 21.49-48 48-48 0.041 0 0.083 0 0.124 0h143.994v-16c0-26.51 21.49-48 48-48v0h384c26.51 0 48 21.49 48 48v0 16h144c0.011 0 0.024 0 0.038 0 26.51 0 48 21.49 48 48 0 13.264-5.38 25.272-14.077 33.96v0zM704 528c-26.51 0-48-21.49-48-48v0-16h-288v16c0 26.51-21.49 48-48 48v0h-76l268 268 268-268zM752 96c0-26.51-21.49-48-48-48v0h-384c-26.51 0-48 21.49-48 48s21.49 48 48 48v0h384c26.51 0 48-21.49 48-48v0zM752 256c0-26.51-21.49-48-48-48v0h-384c-26.51 0-48 21.49-48 48s21.49 48 48 48v0h384c26.51 0 48-21.49 48-48v0z" />
<glyph unicode="&#xe950;" glyph-name="arrow-fat-line-up-bold" data-tags="arrow-fat-line-up-bold" d="M929.92 513.96l-384 384c-8.692 8.721-20.716 14.118-34 14.118s-25.308-5.396-33.999-14.116l-384.001-384.001c-8.698-8.688-14.078-20.696-14.078-33.96 0-26.51 21.49-48 48-48 0.056 0 0.111 0 0.167 0h143.991v-176c0-26.51 21.49-48 48-48v0h384c26.51 0 48 21.49 48 48v0 176h144c26.509 0.001 47.998 21.491 47.998 48 0 13.264-5.38 25.272-14.077 33.96v0zM704 528c-26.51 0-48-21.49-48-48v0-176h-288v176c0 26.51-21.49 48-48 48v0h-76l268 268 268-268zM752 96c0-26.51-21.49-48-48-48v0h-384c-26.51 0-48 21.49-48 48s21.49 48 48 48v0h384c26.51 0 48-21.49 48-48v0z" />
<glyph unicode="&#xe951;" glyph-name="arrow-fat-right-bold" data-tags="arrow-fat-right-bold" d="M961.96 481.96l-384 384c-8.688 8.698-20.696 14.078-33.96 14.078-26.51 0-48-21.49-48-48 0-0.013 0-0.027 0-0.040v0.002-144h-304c-44.183 0-80-35.817-80-80v0-320c0-44.183 35.817-80 80-80v0h304v-144c0-0.011 0-0.024 0-0.038 0-26.51 21.49-48 48-48 13.264 0 25.272 5.38 33.96 14.077v0l384 384c8.698 8.688 14.078 20.696 14.078 33.96s-5.38 25.272-14.077 33.96v0zM592 180v76c0 26.51-21.49 48-48 48v0h-336v288h336c26.51 0 48 21.49 48 48v0 76l268-268z" />
<glyph unicode="&#xe952;" glyph-name="arrow-fat-up-bold" data-tags="arrow-fat-up-bold" d="M929.92 513.96l-384 384c-8.692 8.721-20.716 14.118-34 14.118s-25.308-5.396-33.999-14.116l-384.001-384.001c-8.698-8.688-14.078-20.696-14.078-33.96 0-26.51 21.49-48 48-48 0.056 0 0.111 0 0.167 0h143.991v-304c0-44.183 35.817-80 80-80v0h320c44.183 0 80 35.817 80 80v0 304h144c26.509 0.001 47.998 21.491 47.998 48 0 13.264-5.38 25.272-14.077 33.96v0zM704 528c-26.51 0-48-21.49-48-48v0-336h-288v336c0 26.51-21.49 48-48 48v0h-76l268 268 268-268z" />
<glyph unicode="&#xe953;" glyph-name="arrow-left-bold" data-tags="arrow-left-bold" d="M912 448c0-26.51-21.49-48-48-48v0h-588l206.080-206.040c8.701-8.701 14.083-20.722 14.083-34 0-26.556-21.528-48.083-48.083-48.083-13.278 0-25.299 5.382-34 14.083l-288 288c-8.721 8.692-14.118 20.716-14.118 34s5.396 25.308 14.116 33.999l288.001 288.001c8.701 8.701 20.722 14.083 34 14.083 26.556 0 48.083-21.528 48.083-48.083 0-13.278-5.382-25.299-14.083-34l-206.080-205.96h588c26.51 0 48-21.49 48-48v0z" />
<glyph unicode="&#xe954;" glyph-name="arrow-line-down-bold" data-tags="arrow-line-down-bold" d="M190.040 510.040c-8.701 8.701-14.083 20.722-14.083 34 0 26.556 21.528 48.083 48.083 48.083 13.278 0 25.299-5.382 34-14.083l205.96-206.040v460c0 26.51 21.49 48 48 48s48-21.49 48-48v0-460l206.040 206.080c8.701 8.701 20.722 14.083 34 14.083 26.556 0 48.083-21.528 48.083-48.083 0-13.278-5.382-25.299-14.083-34l-288-288c-8.692-8.721-20.716-14.118-34-14.118s-25.308 5.396-33.999 14.116l-0.001 0.001zM864 144h-704c-26.51 0-48-21.49-48-48s21.49-48 48-48v0h704c26.51 0 48 21.49 48 48s-21.49 48-48 48v0z" />
<glyph unicode="&#xe955;" glyph-name="arrow-line-down-left-bold" data-tags="arrow-line-down-left-bold" d="M912 800c0-26.51-21.49-48-48-48v0h-704c-26.51 0-48 21.49-48 48s21.49 48 48 48v0h704c26.51 0 48-21.49 48-48v0zM670.040 641.96l-366.040-365.96v268c0 26.51-21.49 48-48 48s-48-21.49-48-48v0-384c0-26.51 21.49-48 48-48v0h384c26.51 0 48 21.49 48 48s-21.49 48-48 48v0h-268l366.080 366.040c8.701 8.701 14.083 20.722 14.083 34 0 26.556-21.528 48.083-48.083 48.083-13.278 0-25.299-5.382-34-14.083v0z" />
<glyph unicode="&#xe956;" glyph-name="arrow-line-down-right-bold" data-tags="arrow-line-down-right-bold" d="M912 800c0-26.51-21.49-48-48-48v0h-704c-26.51 0-48 21.49-48 48s21.49 48 48 48v0h704c26.51 0 48-21.49 48-48v0zM768 592c-26.51 0-48-21.49-48-48v0-268l-366.040 365.96c-8.701 8.701-20.722 14.083-34 14.083-26.556 0-48.083-21.528-48.083-48.083 0-13.278 5.382-25.299 14.083-34l366.040-365.96h-268c-26.51 0-48-21.49-48-48s21.49-48 48-48v0h384c26.51 0 48 21.49 48 48v0 384c0 26.51-21.49 48-48 48v0z" />
<glyph unicode="&#xe957;" glyph-name="arrow-line-left-bold" data-tags="arrow-line-left-bold" d="M944 448c0-26.51-21.49-48-48-48v0h-460l206.080-206.040c8.701-8.701 14.083-20.722 14.083-34 0-26.556-21.528-48.083-48.083-48.083-13.278 0-25.299 5.382-34 14.083l-288 288c-8.721 8.692-14.118 20.716-14.118 34s5.396 25.308 14.116 33.999l288.001 288.001c8.701 8.701 20.722 14.083 34 14.083 26.556 0 48.083-21.528 48.083-48.083 0-13.278-5.382-25.299-14.083-34l-206.080-205.96h460c26.51 0 48-21.49 48-48v0zM160 848c-26.51 0-48-21.49-48-48v0-704c0-26.51 21.49-48 48-48s48 21.49 48 48v0 704c0 26.51-21.49 48-48 48v0z" />
<glyph unicode="&#xe958;" glyph-name="arrow-line-right-bold" data-tags="arrow-line-right-bold" d="M737.96 481.96c8.721-8.692 14.118-20.716 14.118-34s-5.396-25.308-14.116-33.999l-288.001-288.001c-8.701-8.701-20.722-14.083-34-14.083-26.556 0-48.083 21.528-48.083 48.083 0 13.278 5.382 25.299 14.083 34l206.040 206.040h-460c-26.51 0-48 21.49-48 48s21.49 48 48 48v0h460l-205.96 206.040c-8.701 8.701-14.083 20.722-14.083 34 0 26.556 21.528 48.083 48.083 48.083 13.278 0 25.299-5.382 34-14.083v0zM864 848c-26.51 0-48-21.49-48-48v0-704c0-26.51 21.49-48 48-48s48 21.49 48 48v0 704c0 26.51-21.49 48-48 48v0z" />
<glyph unicode="&#xe959;" glyph-name="arrow-line-up-bold" data-tags="arrow-line-up-bold" d="M833.96 385.96c8.701-8.701 14.083-20.722 14.083-34 0-26.556-21.528-48.083-48.083-48.083-13.278 0-25.299 5.382-34 14.083l-205.96 206.040v-460c0-26.51-21.49-48-48-48s-48 21.49-48 48v0 460l-206.040-205.96c-8.701-8.701-20.722-14.083-34-14.083-26.556 0-48.083 21.528-48.083 48.083 0 13.278 5.382 25.299 14.083 34l288 288c8.692 8.721 20.716 14.118 34 14.118s25.308-5.396 33.999-14.116l0.001-0.001zM864 848h-704c-26.51 0-48-21.49-48-48s21.49-48 48-48v0h704c26.51 0 48 21.49 48 48s-21.49 48-48 48v0z" />
<glyph unicode="&#xe95a;" glyph-name="arrow-line-up-left-bold" data-tags="arrow-line-up-left-bold" d="M912 96c0-26.51-21.49-48-48-48v0h-704c-26.51 0-48 21.49-48 48s21.49 48 48 48v0h704c26.51 0 48-21.49 48-48v0zM256 304c26.51 0 48 21.49 48 48v0 268l366.040-366.080c8.701-8.701 20.722-14.083 34-14.083 26.556 0 48.083 21.528 48.083 48.083 0 13.278-5.382 25.299-14.083 34l-366.040 366.080h268c26.51 0 48 21.49 48 48s-21.49 48-48 48v0h-384c-26.51 0-48-21.49-48-48v0-384c0-26.51 21.49-48 48-48v0z" />
<glyph unicode="&#xe95b;" glyph-name="arrow-line-up-right-bold" data-tags="arrow-line-up-right-bold" d="M912 96c0-26.51-21.49-48-48-48v0h-704c-26.51 0-48 21.49-48 48s21.49 48 48 48v0h704c26.51 0 48-21.49 48-48v0zM320 240c0.011 0 0.024 0 0.038 0 13.245 0 25.238 5.365 33.923 14.040v0l366.040 365.96v-268c0-26.51 21.49-48 48-48s48 21.49 48 48v0 384c0 26.51-21.49 48-48 48v0h-384c-26.51 0-48-21.49-48-48s21.49-48 48-48v0h268l-365.96-366.040c-8.698-8.688-14.078-20.696-14.078-33.96 0-26.51 21.49-48 48-48 0.013 0 0.027 0 0.040 0h-0.002z" />
<glyph unicode="&#xe95c;" glyph-name="arrow-right-bold" data-tags="arrow-right-bold" d="M897.96 414.040l-288-288c-8.701-8.701-20.722-14.083-34-14.083-26.556 0-48.083 21.528-48.083 48.083 0 13.278 5.382 25.299 14.083 34l206.040 205.96h-588c-26.51 0-48 21.49-48 48s21.49 48 48 48v0h588l-205.96 206.080c-8.701 8.701-14.083 20.722-14.083 34 0 26.556 21.528 48.083 48.083 48.083 13.278 0 25.299-5.382 34-14.083l288-288c8.71-8.69 14.098-20.706 14.098-33.98 0-13.314-5.421-25.362-14.175-34.057l-0.003-0.003z" />
<glyph unicode="&#xe95d;" glyph-name="arrows-clockwise-bold" data-tags="arrows-clockwise-bold" d="M801.96 225.96c8.721-8.692 14.118-20.716 14.118-34s-5.396-25.308-14.116-33.999l-0.001-0.001c-4.52-4.48-112-110.040-289.96-110.040-134.84 0-237.4 69.84-304 135.44v-55.36c0-26.51-21.49-48-48-48s-48 21.49-48 48v0 192c0 26.51 21.49 48 48 48v0h192c26.51 0 48-21.49 48-48s-21.49-48-48-48v0h-95.52c52.4-57.28 140.32-128 255.52-128 138.52 0 221.24 81.12 222.040 81.96 8.688 8.698 20.696 14.078 33.96 14.078s25.272-5.38 33.96-14.077v0zM864 816c-26.51 0-48-21.49-48-48v0-55.44c-66.6 65.6-169.16 135.44-304 135.44-177.84 0-285.44-105.56-289.96-110.040-8.701-8.701-14.083-20.722-14.083-34 0-26.556 21.528-48.083 48.083-48.083 13.278 0 25.299 5.382 34 14.083v0c0.72 0.92 83.44 82.040 221.96 82.040 115.2 0 203.12-70.72 255.52-128h-95.52c-26.51 0-48-21.49-48-48s21.49-48 48-48v0h192c26.51 0 48 21.49 48 48v0 192c0 26.51-21.49 48-48 48v0z" />
<glyph unicode="&#xe95e;" glyph-name="arrows-counter-clockwise-bold" data-tags="arrows-counter-clockwise-bold" d="M352 528h-192c-26.51 0-48 21.49-48 48v0 192c0 26.51 21.49 48 48 48s48-21.49 48-48v0-55.44c66.6 65.6 169.16 135.44 304 135.44 177.84 0 285.44-105.56 289.96-110.040 8.561-8.665 13.85-20.58 13.85-33.731 0-26.51-21.49-48-48-48-13.091 0-24.958 5.24-33.617 13.738l0.007-0.007c-1.76 1.68-86.2 82.040-222.2 82.040-116 0-203.76-70.72-256-128h96c26.51 0 48-21.49 48-48s-21.49-48-48-48v0zM864 368h-192c-26.51 0-48-21.49-48-48s21.49-48 48-48v0h96c-52-57.28-140-128-256-128-136 0-220.44 80.36-222.2 82.080-8.652 8.49-20.519 13.731-33.61 13.731-26.51 0-48-21.49-48-48 0-13.151 5.288-25.066 13.854-33.735l-0.005 0.005c4.52-4.52 112.12-110.080 289.96-110.080 134.84 0 237.4 69.84 304 135.44v-55.44c0-26.51 21.49-48 48-48s48 21.49 48 48v0 192c0 26.51-21.49 48-48 48v0z" />
<glyph unicode="&#xe95f;" glyph-name="arrows-down-up-bold" data-tags="arrows-down-up-bold" d="M481.96 289.96c8.721-8.692 14.118-20.716 14.118-34s-5.396-25.308-14.116-33.999l-128.001-128.001c-8.692-8.721-20.716-14.118-34-14.118s-25.308 5.396-33.999 14.116l-128.001 128.001c-8.701 8.701-14.083 20.722-14.083 34 0 26.556 21.528 48.083 48.083 48.083 13.278 0 25.299-5.382 34-14.083v0l46.040-45.96v524c0 26.51 21.49 48 48 48s48-21.49 48-48v0-524l46.040 46.080c8.682 8.662 20.666 14.018 33.9 14.018 13.294 0 25.326-5.404 34.018-14.136l0.002-0.002zM865.96 673.96l-128 128c-8.692 8.721-20.716 14.118-34 14.118s-25.308-5.396-33.999-14.116l-128.001-128.001c-8.701-8.701-14.083-20.722-14.083-34 0-26.556 21.528-48.083 48.083-48.083 13.278 0 25.299 5.382 34 14.083l46.040 46.040v-524c0-26.51 21.49-48 48-48s48 21.49 48 48v0 524l46.040-46.080c8.701-8.701 20.722-14.083 34-14.083 26.556 0 48.083 21.528 48.083 48.083 0 13.278-5.382 25.299-14.083 34v0z" />
<glyph unicode="&#xe960;" glyph-name="arrows-horizontal-bold" data-tags="arrows-horizontal-bold" d="M961.96 414.040l-128-128c-8.701-8.701-20.722-14.083-34-14.083-26.556 0-48.083 21.528-48.083 48.083 0 13.278 5.382 25.299 14.083 34v0l46.040 45.96h-600l46.080-46.040c8.701-8.701 14.083-20.722 14.083-34 0-26.556-21.528-48.083-48.083-48.083-13.278 0-25.299 5.382-34 14.083l-128 128c-8.721 8.692-14.118 20.716-14.118 34s5.396 25.308 14.116 33.999l128.001 128.001c8.701 8.701 20.722 14.083 34 14.083 26.556 0 48.083-21.528 48.083-48.083 0-13.278-5.382-25.299-14.083-34v0l-46.080-45.96h600l-46.080 46.040c-8.701 8.701-14.083 20.722-14.083 34 0 26.556 21.528 48.083 48.083 48.083 13.278 0 25.299-5.382 34-14.083l128-128c8.733-8.694 14.138-20.726 14.138-34.020 0-13.274-5.388-25.29-14.097-33.979l-0.001-0.001z" />
<glyph unicode="&#xe961;" glyph-name="arrows-in-bold" data-tags="arrows-in-bold" d="M560 544v160c0 26.51 21.49 48 48 48s48-21.49 48-48v0-44l142.040 142.080c8.701 8.701 20.722 14.083 34 14.083 26.556 0 48.083-21.528 48.083-48.083 0-13.278-5.382-25.299-14.083-34l-142.040-142.080h44c26.51 0 48-21.49 48-48s-21.49-48-48-48v0h-160c-26.51 0-48 21.49-48 48v0zM416 400h-160c-26.51 0-48-21.49-48-48s21.49-48 48-48v0h44l-141.96-142.040c-8.701-8.701-14.083-20.722-14.083-34 0-26.556 21.528-48.083 48.083-48.083 13.278 0 25.299 5.382 34 14.083l141.96 142.040v-44c0-26.51 21.49-48 48-48s48 21.49 48 48v0 160c0 26.51-21.49 48-48 48v0zM724 304h44c26.51 0 48 21.49 48 48s-21.49 48-48 48v0h-160c-26.51 0-48-21.49-48-48v0-160c0-26.51 21.49-48 48-48s48 21.49 48 48v0 44l142.040-142.080c8.701-8.701 20.722-14.083 34-14.083 26.556 0 48.083 21.528 48.083 48.083 0 13.278-5.382 25.299-14.083 34v0zM416 752c-26.51 0-48-21.49-48-48v0-44l-142.040 141.96c-8.701 8.701-20.722 14.083-34 14.083-26.556 0-48.083-21.528-48.083-48.083 0-13.278 5.382-25.299 14.083-34l142.040-141.96h-44c-26.51 0-48-21.49-48-48s21.49-48 48-48v0h160c26.51 0 48 21.49 48 48v0 160c0 26.51-21.49 48-48 48v0z" />
<glyph unicode="&#xe962;" glyph-name="arrows-in-cardinal-bold" data-tags="arrows-in-cardinal-bold" d="M350.040 670.040c-8.701 8.701-14.083 20.722-14.083 34 0 26.556 21.528 48.083 48.083 48.083 13.278 0 25.299-5.382 34-14.083v0l45.96-46.040v172c0 26.51 21.49 48 48 48s48-21.49 48-48v0-172l46.040 46.080c8.701 8.701 20.722 14.083 34 14.083 26.556 0 48.083-21.528 48.083-48.083 0-13.278-5.382-25.299-14.083-34l-128-128c-8.692-8.721-20.716-14.118-34-14.118s-25.308 5.396-33.999 14.116l-0.001 0.001zM546.040 354.040c-8.692 8.721-20.716 14.118-34 14.118s-25.308-5.396-33.999-14.116l-128.001-128.001c-8.701-8.701-14.083-20.722-14.083-34 0-26.556 21.528-48.083 48.083-48.083 13.278 0 25.299 5.382 34 14.083l45.96 45.96v-172c0-26.51 21.49-48 48-48s48 21.49 48 48v0 172l46.040-46.080c8.701-8.701 20.722-14.083 34-14.083 26.556 0 48.083 21.528 48.083 48.083 0 13.278-5.382 25.299-14.083 34v0zM928 496h-172l46.080 46.040c8.701 8.701 14.083 20.722 14.083 34 0 26.556-21.528 48.083-48.083 48.083-13.278 0-25.299-5.382-34-14.083l-128-128c-8.721-8.692-14.118-20.716-14.118-34s5.396-25.308 14.116-33.999l128.001-128.001c8.701-8.701 20.722-14.083 34-14.083 26.556 0 48.083 21.528 48.083 48.083 0 13.278-5.382 25.299-14.083 34v0l-46.080 45.96h172c26.51 0 48 21.49 48 48s-21.49 48-48 48v0zM417.96 481.96l-128 128c-8.701 8.701-20.722 14.083-34 14.083-26.556 0-48.083-21.528-48.083-48.083 0-13.278 5.382-25.299 14.083-34v0l46.040-45.96h-172c-26.51 0-48-21.49-48-48s21.49-48 48-48v0h172l-45.96-46.040c-8.701-8.701-14.083-20.722-14.083-34 0-26.556 21.528-48.083 48.083-48.083 13.278 0 25.299 5.382 34 14.083l128 128c8.698 8.688 14.078 20.696 14.078 33.96 0 13.304-5.413 25.344-14.156 34.038l-0.002 0.002z" />
<glyph unicode="&#xe963;" glyph-name="arrows-in-line-horizontal-bold" data-tags="arrows-in-line-horizontal-bold" d="M560 800v-704c0-26.51-21.49-48-48-48s-48 21.49-48 48v0 704c0 26.51 21.49 48 48 48s48-21.49 48-48v0zM257.96 609.96c-8.701 8.701-20.722 14.083-34 14.083-26.556 0-48.083-21.528-48.083-48.083 0-13.278 5.382-25.299 14.083-34v0l46.040-45.96h-172c-26.51 0-48-21.49-48-48s21.49-48 48-48v0h172l-45.96-46.040c-8.701-8.701-14.083-20.722-14.083-34 0-26.556 21.528-48.083 48.083-48.083 13.278 0 25.299 5.382 34 14.083l128 128c8.721 8.692 14.118 20.716 14.118 34s-5.396 25.308-14.116 33.999l-0.001 0.001zM960 496h-172l46.080 46.040c8.701 8.701 14.083 20.722 14.083 34 0 26.556-21.528 48.083-48.083 48.083-13.278 0-25.299-5.382-34-14.083l-128-128c-8.721-8.692-14.118-20.716-14.118-34s5.396-25.308 14.116-33.999l128.001-128.001c8.701-8.701 20.722-14.083 34-14.083 26.556 0 48.083 21.528 48.083 48.083 0 13.278-5.382 25.299-14.083 34v0l-46.080 45.96h172c26.51 0 48 21.49 48 48s-21.49 48-48 48v0z" />
<glyph unicode="&#xe964;" glyph-name="arrows-in-line-vertical-bold" data-tags="arrows-in-line-vertical-bold" d="M912 448c0-26.51-21.49-48-48-48v0h-704c-26.51 0-48 21.49-48 48s21.49 48 48 48v0h704c26.51 0 48-21.49 48-48v0zM478.040 574.040c8.692-8.721 20.716-14.118 34-14.118s25.308 5.396 33.999 14.116l128.001 128.001c8.701 8.701 14.083 20.722 14.083 34 0 26.556-21.528 48.083-48.083 48.083-13.278 0-25.299-5.382-34-14.083l-46.040-46.040v172c0 26.51-21.49 48-48 48s-48-21.49-48-48v0-172l-46.040 45.96c-8.701 8.701-20.722 14.083-34 14.083-26.556 0-48.083-21.528-48.083-48.083 0-13.278 5.382-25.299 14.083-34v0zM546.040 322.040c-8.692 8.721-20.716 14.118-34 14.118s-25.308-5.396-33.999-14.116l-128.001-128.001c-8.701-8.701-14.083-20.722-14.083-34 0-26.556 21.528-48.083 48.083-48.083 13.278 0 25.299 5.382 34 14.083l45.96 45.96v-172c0-26.51 21.49-48 48-48s48 21.49 48 48v0 172l46.040-46.080c8.701-8.701 20.722-14.083 34-14.083 26.556 0 48.083 21.528 48.083 48.083 0 13.278-5.382 25.299-14.083 34v0z" />
<glyph unicode="&#xe965;" glyph-name="arrows-in-simple-bold" data-tags="arrows-in-simple-bold" d="M865.96 734.080l-157.96-158.080h76c26.51 0 48-21.49 48-48s-21.49-48-48-48v0h-192c-26.51 0-48 21.49-48 48v0 192c0 26.51 21.49 48 48 48s48-21.49 48-48v0-76l158.040 158.080c8.701 8.701 20.722 14.083 34 14.083 26.556 0 48.083-21.528 48.083-48.083 0-13.278-5.382-25.299-14.083-34v0zM432 416h-192c-26.51 0-48-21.49-48-48s21.49-48 48-48v0h76l-157.96-158.040c-8.701-8.701-14.083-20.722-14.083-34 0-26.556 21.528-48.083 48.083-48.083 13.278 0 25.299 5.382 34 14.083l157.96 158.040v-76c0-26.51 21.49-48 48-48s48 21.49 48 48v0 192c0 26.51-21.49 48-48 48v0z" />
<glyph unicode="&#xe966;" glyph-name="arrows-left-right-bold" data-tags="arrows-left-right-bold" d="M865.96 222.040l-128-128c-8.701-8.701-20.722-14.083-34-14.083-26.556 0-48.083 21.528-48.083 48.083 0 13.278 5.382 25.299 14.083 34v0l46.040 45.96h-524c-26.51 0-48 21.49-48 48s21.49 48 48 48v0h524l-46.080 46.040c-8.701 8.701-14.083 20.722-14.083 34 0 26.556 21.528 48.083 48.083 48.083 13.278 0 25.299-5.382 34-14.083l128-128c8.733-8.694 14.138-20.726 14.138-34.020 0-13.274-5.388-25.29-14.097-33.979l-0.001-0.001zM285.96 478.040c8.701-8.701 20.722-14.083 34-14.083 26.556 0 48.083 21.528 48.083 48.083 0 13.278-5.382 25.299-14.083 34l-45.96 45.96h524c26.51 0 48 21.49 48 48s-21.49 48-48 48v0h-524l45.96 46.040c8.701 8.701 14.083 20.722 14.083 34 0 26.556-21.528 48.083-48.083 48.083-13.278 0-25.299-5.382-34-14.083l-128-128c-8.721-8.692-14.118-20.716-14.118-34s5.396-25.308 14.116-33.999l0.001-0.001z" />
<glyph unicode="&#xe967;" glyph-name="arrows-merge-bold" data-tags="arrows-merge-bold" d="M784 800v-256c0-0.011 0-0.024 0-0.038 0-13.245-5.365-25.238-14.040-33.923l-209.96-210.040v-152l46.040 46.080c8.701 8.701 20.722 14.083 34 14.083 26.556 0 48.083-21.528 48.083-48.083 0-13.278-5.382-25.299-14.083-34l-128-128c-8.692-8.721-20.716-14.118-34-14.118s-25.308 5.396-33.999 14.116l-128.001 128.001c-8.701 8.701-14.083 20.722-14.083 34 0 26.556 21.528 48.083 48.083 48.083 13.278 0 25.299-5.382 34-14.083v0l45.96-46.080v152l-209.96 210.040c-8.675 8.684-14.040 20.677-14.040 33.922 0 0.013 0 0.027 0 0.040v-0.002 256c0 26.51 21.49 48 48 48s48-21.49 48-48v0-236l176-176 176 176v236c0 26.51 21.49 48 48 48s48-21.49 48-48v0z" />
<glyph unicode="&#xe968;" glyph-name="arrows-out-bold" data-tags="arrows-out-bold" d="M880 768v-192c0-26.51-21.49-48-48-48s-48 21.49-48 48v0 76l-142.040-142.080c-8.701-8.701-20.722-14.083-34-14.083-26.556 0-48.083 21.528-48.083 48.083 0 13.278 5.382 25.299 14.083 34l142.040 142.080h-76c-26.51 0-48 21.49-48 48s21.49 48 48 48v0h192c26.51 0 48-21.49 48-48v0zM382.040 385.96l-142.040-141.96v76c0 26.51-21.49 48-48 48s-48-21.49-48-48v0-192c0-26.51 21.49-48 48-48v0h192c26.51 0 48 21.49 48 48s-21.49 48-48 48v0h-76l142.080 142.040c8.701 8.701 14.083 20.722 14.083 34 0 26.556-21.528 48.083-48.083 48.083-13.278 0-25.299-5.382-34-14.083v0zM832 368c-26.51 0-48-21.49-48-48v0-76l-142.040 142.080c-8.701 8.701-20.722 14.083-34 14.083-26.556 0-48.083-21.528-48.083-48.083 0-13.278 5.382-25.299 14.083-34l142.040-142.080h-76c-26.51 0-48-21.49-48-48s21.49-48 48-48v0h192c26.51 0 48 21.49 48 48v0 192c0 26.51-21.49 48-48 48v0zM308 720h76c26.51 0 48 21.49 48 48s-21.49 48-48 48v0h-192c-26.51 0-48-21.49-48-48v0-192c0-26.51 21.49-48 48-48s48 21.49 48 48v0 76l142.040-142.080c8.701-8.701 20.722-14.083 34-14.083 26.556 0 48.083 21.528 48.083 48.083 0 13.278-5.382 25.299-14.083 34v0z" />
<glyph unicode="&#xe969;" glyph-name="arrows-out-cardinal-bold" data-tags="arrows-out-cardinal-bold" d="M350.040 702.040c-8.721 8.692-14.118 20.716-14.118 34s5.396 25.308 14.116 33.999l128.001 128.001c8.692 8.721 20.716 14.118 34 14.118s25.308-5.396 33.999-14.116l128.001-128.001c8.701-8.701 14.083-20.722 14.083-34 0-26.556-21.528-48.083-48.083-48.083-13.278 0-25.299 5.382-34 14.083v0l-46.040 45.96v-172c0-26.51-21.49-48-48-48s-48 21.49-48 48v0 172l-46.040-45.96c-8.688-8.698-20.696-14.078-33.96-14.078s-25.272 5.38-33.96 14.077v0zM606.040 194.040l-46.040-46.040v172c0 26.51-21.49 48-48 48s-48-21.49-48-48v0-172l-46.040 46.080c-8.701 8.701-20.722 14.083-34 14.083-26.556 0-48.083-21.528-48.083-48.083 0-13.278 5.382-25.299 14.083-34l128-128c8.692-8.721 20.716-14.118 34-14.118s25.308 5.396 33.999 14.116l128.001 128.001c8.701 8.701 14.083 20.722 14.083 34 0 26.556-21.528 48.083-48.083 48.083-13.278 0-25.299-5.382-34-14.083v0zM962.040 482.040l-128 128c-8.701 8.701-20.722 14.083-34 14.083-26.556 0-48.083-21.528-48.083-48.083 0-13.278 5.382-25.299 14.083-34v0l45.96-46.040h-172c-26.51 0-48-21.49-48-48s21.49-48 48-48v0h172l-46.080-46.040c-8.701-8.701-14.083-20.722-14.083-34 0-26.556 21.528-48.083 48.083-48.083 13.278 0 25.299 5.382 34 14.083l128 128c8.733 8.694 14.138 20.726 14.138 34.020 0 13.274-5.388 25.29-14.097 33.979l-0.001 0.001zM212 400h172c26.51 0 48 21.49 48 48s-21.49 48-48 48v0h-172l46.080 46.040c8.701 8.701 14.083 20.722 14.083 34 0 26.556-21.528 48.083-48.083 48.083-13.278 0-25.299-5.382-34-14.083l-128-128c-8.721-8.692-14.118-20.716-14.118-34s5.396-25.308 14.116-33.999l128.001-128.001c8.701-8.701 20.722-14.083 34-14.083 26.556 0 48.083 21.528 48.083 48.083 0 13.278-5.382 25.299-14.083 34v0z" />
<glyph unicode="&#xe96a;" glyph-name="arrows-out-line-horizontal-bold" data-tags="arrows-out-line-horizontal-bold" d="M560 800v-704c0-26.51-21.49-48-48-48s-48 21.49-48 48v0 704c0 26.51 21.49 48 48 48s48-21.49 48-48v0zM352 496h-172l46.080 46.040c8.701 8.701 14.083 20.722 14.083 34 0 26.556-21.528 48.083-48.083 48.083-13.278 0-25.299-5.382-34-14.083l-128-128c-8.721-8.692-14.118-20.716-14.118-34s5.396-25.308 14.116-33.999l128.001-128.001c8.701-8.701 20.722-14.083 34-14.083 26.556 0 48.083 21.528 48.083 48.083 0 13.278-5.382 25.299-14.083 34v0l-46.080 45.96h172c26.51 0 48 21.49 48 48s-21.49 48-48 48v0zM993.96 481.96l-128 128c-8.701 8.701-20.722 14.083-34 14.083-26.556 0-48.083-21.528-48.083-48.083 0-13.278 5.382-25.299 14.083-34v0l46.040-45.96h-172c-26.51 0-48-21.49-48-48s21.49-48 48-48v0h172l-46.080-46.040c-8.701-8.701-14.083-20.722-14.083-34 0-26.556 21.528-48.083 48.083-48.083 13.278 0 25.299 5.382 34 14.083l128 128c8.733 8.694 14.138 20.726 14.138 34.020 0 13.274-5.388 25.29-14.097 33.979l-0.001 0.001z" />
<glyph unicode="&#xe96b;" glyph-name="arrows-out-line-vertical-bold" data-tags="arrows-out-line-vertical-bold" d="M912 448c0-26.51-21.49-48-48-48v0h-704c-26.51 0-48 21.49-48 48s21.49 48 48 48v0h704c26.51 0 48-21.49 48-48v0zM417.96 734.080l46.040 45.92v-172c0-26.51 21.49-48 48-48s48 21.49 48 48v0 172l46.040-46.040c8.701-8.701 20.722-14.083 34-14.083 26.556 0 48.083 21.528 48.083 48.083 0 13.278-5.382 25.299-14.083 34l-128 128c-8.692 8.721-20.716 14.118-34 14.118s-25.308-5.396-33.999-14.116l-128.001-128.001c-8.701-8.701-14.083-20.722-14.083-34 0-26.556 21.528-48.083 48.083-48.083 13.278 0 25.299 5.382 34 14.083v0zM605.96 162.080l-45.96-46.080v172c0 26.51-21.49 48-48 48s-48-21.49-48-48v0-172l-46.040 46.080c-8.701 8.701-20.722 14.083-34 14.083-26.556 0-48.083-21.528-48.083-48.083 0-13.278 5.382-25.299 14.083-34l128-128c8.692-8.721 20.716-14.118 34-14.118s25.308 5.396 33.999 14.116l128.001 128.001c8.701 8.701 14.083 20.722 14.083 34 0 26.556-21.528 48.083-48.083 48.083-13.278 0-25.299-5.382-34-14.083v0z" />
<glyph unicode="&#xe96c;" glyph-name="arrows-out-simple-bold" data-tags="arrows-out-simple-bold" d="M880 768v-192c0-26.51-21.49-48-48-48s-48 21.49-48 48v0 76l-158.040-158.080c-8.701-8.701-20.722-14.083-34-14.083-26.556 0-48.083 21.528-48.083 48.083 0 13.278 5.382 25.299 14.083 34l158.040 158.080h-76c-26.51 0-48 21.49-48 48s21.49 48 48 48v0h192c26.51 0 48-21.49 48-48v0zM398.040 401.96l-158.040-157.96v76c0 26.51-21.49 48-48 48s-48-21.49-48-48v0-192c0-26.51 21.49-48 48-48v0h192c26.51 0 48 21.49 48 48s-21.49 48-48 48v0h-76l158.080 158.040c8.701 8.701 14.083 20.722 14.083 34 0 26.556-21.528 48.083-48.083 48.083-13.278 0-25.299-5.382-34-14.083v0z" />
<glyph unicode="&#xe96d;" glyph-name="arrow-square-down-bold" data-tags="arrow-square-down-bold" d="M832 848h-640c-44.183 0-80-35.817-80-80v0-640c0-44.183 35.817-80 80-80v0h640c44.183 0 80 35.817 80 80v0 640c0 44.183-35.817 80-80 80v0zM816 144h-608v608h608zM350.040 382.040c-8.701 8.701-14.083 20.722-14.083 34 0 26.556 21.528 48.083 48.083 48.083 13.278 0 25.299-5.382 34-14.083v0l45.96-46.040v204c0 26.51 21.49 48 48 48s48-21.49 48-48v0-204l46.040 46.080c8.701 8.701 20.722 14.083 34 14.083 26.556 0 48.083-21.528 48.083-48.083 0-13.278-5.382-25.299-14.083-34l-128-128c-8.692-8.721-20.716-14.118-34-14.118s-25.308 5.396-33.999 14.116l-0.001 0.001z" />
<glyph unicode="&#xe96e;" glyph-name="arrow-square-down-left-bold" data-tags="arrow-square-down-left-bold" d="M832 848h-640c-44.183 0-80-35.817-80-80v0-640c0-44.183 35.817-80 80-80v0h640c44.183 0 80 35.817 80 80v0 640c0 44.183-35.817 80-80 80v0zM816 144h-608v608h608zM336 320v192c0 26.51 21.49 48 48 48s48-21.49 48-48v0-76l174.040 174.080c8.701 8.701 20.722 14.083 34 14.083 26.556 0 48.083-21.528 48.083-48.083 0-13.278-5.382-25.299-14.083-34l-174.040-174.080h76c26.51 0 48-21.49 48-48s-21.49-48-48-48v0h-192c-26.51 0-48 21.49-48 48v0z" />
<glyph unicode="&#xe96f;" glyph-name="arrow-square-down-right-bold" data-tags="arrow-square-down-right-bold" d="M832 848h-640c-44.183 0-80-35.817-80-80v0-640c0-44.183 35.817-80 80-80v0h640c44.183 0 80 35.817 80 80v0 640c0 44.183-35.817 80-80 80v0zM816 144h-608v608h608zM350.040 542.040c-8.701 8.701-14.083 20.722-14.083 34 0 26.556 21.528 48.083 48.083 48.083 13.278 0 25.299-5.382 34-14.083l173.96-174.040v76c0 26.51 21.49 48 48 48s48-21.49 48-48v0-192c0-26.51-21.49-48-48-48v0h-192c-26.51 0-48 21.49-48 48s21.49 48 48 48v0h76z" />
<glyph unicode="&#xe970;" glyph-name="arrow-square-in-bold" data-tags="arrow-square-in-bold" d="M528 416v-256c0-26.51-21.49-48-48-48s-48 21.49-48 48v0 140l-238.040-237.96c-8.701-8.701-20.722-14.083-34-14.083-26.556 0-48.083 21.528-48.083 48.083 0 13.278 5.382 25.299 14.083 34l238.040 237.96h-140c-26.51 0-48 21.49-48 48s21.49 48 48 48v0h256c26.51 0 48-21.49 48-48v0zM832 848h-512c-44.183 0-80-35.817-80-80v0-176c0-26.51 21.49-48 48-48s48 21.49 48 48v0 160h480v-480h-160c-26.51 0-48-21.49-48-48s21.49-48 48-48v0h176c44.183 0 80 35.817 80 80v0 512c0 44.183-35.817 80-80 80v0z" />
<glyph unicode="&#xe971;" glyph-name="arrow-square-left-bold" data-tags="arrow-square-left-bold" d="M832 848h-640c-44.183 0-80-35.817-80-80v0-640c0-44.183 35.817-80 80-80v0h640c44.183 0 80 35.817 80 80v0 640c0 44.183-35.817 80-80 80v0zM816 144h-608v608h608zM318.040 414.040c-8.721 8.692-14.118 20.716-14.118 34s5.396 25.308 14.116 33.999l128.001 128.001c8.701 8.701 20.722 14.083 34 14.083 26.556 0 48.083-21.528 48.083-48.083 0-13.278-5.382-25.299-14.083-34l-46.040-46.040h204c26.51 0 48-21.49 48-48s-21.49-48-48-48v0h-204l46.080-46.040c8.701-8.701 14.083-20.722 14.083-34 0-26.556-21.528-48.083-48.083-48.083-13.278 0-25.299 5.382-34 14.083v0z" />
<glyph unicode="&#xe972;" glyph-name="arrow-square-out-bold" data-tags="arrow-square-out-bold" d="M912 544c0-26.51-21.49-48-48-48s-48 21.49-48 48v0 140l-238.040-238.040c-8.701-8.701-20.722-14.083-34-14.083-26.556 0-48.083 21.528-48.083 48.083 0 13.278 5.382 25.299 14.083 34l238.040 238.040h-140c-26.51 0-48 21.49-48 48s21.49 48 48 48v0h256c26.51 0 48-21.49 48-48v0zM736 448c-26.51 0-48-21.49-48-48v0-256h-480v480h256c26.51 0 48 21.49 48 48s-21.49 48-48 48v0h-272c-44.183 0-80-35.817-80-80v0-512c0-44.183 35.817-80 80-80v0h512c44.183 0 80 35.817 80 80v0 272c0 26.51-21.49 48-48 48v0z" />
<glyph unicode="&#xe973;" glyph-name="arrow-square-right-bold" data-tags="arrow-square-right-bold" d="M832 848h-640c-44.183 0-80-35.817-80-80v0-640c0-44.183 35.817-80 80-80v0h640c44.183 0 80 35.817 80 80v0 640c0 44.183-35.817 80-80 80v0zM816 144h-608v608h608zM304 448c0 26.51 21.49 48 48 48v0h204l-46.080 46.040c-8.701 8.701-14.083 20.722-14.083 34 0 26.556 21.528 48.083 48.083 48.083 13.278 0 25.299-5.382 34-14.083l128-128c8.721-8.692 14.118-20.716 14.118-34s-5.396-25.308-14.116-33.999l-128.001-128.001c-8.701-8.701-20.722-14.083-34-14.083-26.556 0-48.083 21.528-48.083 48.083 0 13.278 5.382 25.299 14.083 34v0l46.080 45.96h-204c-26.51 0-48 21.49-48 48v0z" />
<glyph unicode="&#xe974;" glyph-name="arrow-square-up-bold" data-tags="arrow-square-up-bold" d="M832 848h-640c-44.183 0-80-35.817-80-80v0-640c0-44.183 35.817-80 80-80v0h640c44.183 0 80 35.817 80 80v0 640c0 44.183-35.817 80-80 80v0zM816 144h-608v608h608zM350.040 446.040c-8.721 8.692-14.118 20.716-14.118 34s5.396 25.308 14.116 33.999l128.001 128.001c8.692 8.721 20.716 14.118 34 14.118s25.308-5.396 33.999-14.116l128.001-128.001c8.701-8.701 14.083-20.722 14.083-34 0-26.556-21.528-48.083-48.083-48.083-13.278 0-25.299 5.382-34 14.083v0l-46.040 45.96v-204c0-26.51-21.49-48-48-48s-48 21.49-48 48v0 204l-46.040-46.080c-8.682-8.662-20.666-14.018-33.9-14.018-13.294 0-25.326 5.404-34.018 14.136l-0.002 0.002z" />
<glyph unicode="&#xe975;" glyph-name="arrow-square-up-left-bold" data-tags="arrow-square-up-left-bold" d="M832 848h-640c-44.183 0-80-35.817-80-80v0-640c0-44.183 35.817-80 80-80v0h640c44.183 0 80 35.817 80 80v0 640c0 44.183-35.817 80-80 80v0zM816 144h-608v608h608zM336 384v192c0 26.51 21.49 48 48 48v0h192c26.51 0 48-21.49 48-48s-21.49-48-48-48v0h-76l174.080-174.040c8.701-8.701 14.083-20.722 14.083-34 0-26.556-21.528-48.083-48.083-48.083-13.278 0-25.299 5.382-34 14.083l-174.080 174.040v-76c0-26.51-21.49-48-48-48s-48 21.49-48 48v0z" />
<glyph unicode="&#xe976;" glyph-name="arrow-square-up-right-bold" data-tags="arrow-square-up-right-bold" d="M832 848h-640c-44.183 0-80-35.817-80-80v0-640c0-44.183 35.817-80 80-80v0h640c44.183 0 80 35.817 80 80v0 640c0 44.183-35.817 80-80 80v0zM816 144h-608v608h608zM350.040 286.040c-8.721 8.692-14.118 20.716-14.118 34s5.396 25.308 14.116 33.999l173.961 173.961h-76c-26.51 0-48 21.49-48 48s21.49 48 48 48v0h192c26.51 0 48-21.49 48-48v0-192c0-26.51-21.49-48-48-48s-48 21.49-48 48v0 76l-174.040-174.080c-8.692-8.721-20.716-14.118-34-14.118s-25.308 5.396-33.999 14.116l-0.001 0.001z" />
<glyph unicode="&#xe977;" glyph-name="arrows-split-bold" data-tags="arrows-split-bold" d="M929.96 190.040l-128-128c-8.692-8.721-20.716-14.118-34-14.118s-25.308 5.396-33.999 14.116l-128.001 128.001c-8.701 8.701-14.083 20.722-14.083 34 0 26.556 21.528 48.083 48.083 48.083 13.278 0 25.299-5.382 34-14.083l46.040-46.040v184l-208 208-208-208v-184l46.040 46.080c8.701 8.701 20.722 14.083 34 14.083 26.556 0 48.083-21.528 48.083-48.083 0-13.278-5.382-25.299-14.083-34l-128-128c-8.692-8.721-20.716-14.118-34-14.118s-25.308 5.396-33.999 14.116l-128.001 128.001c-8.701 8.701-14.083 20.722-14.083 34 0 26.556 21.528 48.083 48.083 48.083 13.278 0 25.299-5.382 34-14.083v0l45.96-46.080v204c0 0.011 0 0.024 0 0.038 0 13.245 5.365 25.238 14.040 33.923l241.96 242.040v172c0 26.51 21.49 48 48 48s48-21.49 48-48v0-172l241.96-241.92c8.675-8.684 14.040-20.677 14.040-33.922 0-0.055 0-0.111 0-0.166v0.009-204l46.040 46.080c8.701 8.701 20.722 14.083 34 14.083 26.556 0 48.083-21.528 48.083-48.083 0-13.278-5.382-25.299-14.083-34v0z" />
<glyph unicode="&#xe978;" glyph-name="arrows-vertical-bold" data-tags="arrows-vertical-bold" d="M673.96 193.96c8.721-8.692 14.118-20.716 14.118-34s-5.396-25.308-14.116-33.999l-128.001-128.001c-8.692-8.721-20.716-14.118-34-14.118s-25.308 5.396-33.999 14.116l-128.001 128.001c-8.701 8.701-14.083 20.722-14.083 34 0 26.556 21.528 48.083 48.083 48.083 13.278 0 25.299-5.382 34-14.083v0l46.040-45.96v600l-46.040-45.96c-8.701-8.701-20.722-14.083-34-14.083-26.556 0-48.083 21.528-48.083 48.083 0 13.278 5.382 25.299 14.083 34l128 128c8.692 8.721 20.716 14.118 34 14.118s25.308-5.396 33.999-14.116l128.001-128.001c8.701-8.701 14.083-20.722 14.083-34 0-26.556-21.528-48.083-48.083-48.083-13.278 0-25.299 5.382-34 14.083l-45.96 45.96v-600l46.040 46.080c8.682 8.662 20.666 14.018 33.9 14.018 13.294 0 25.326-5.404 34.018-14.136l0.002-0.002z" />
<glyph unicode="&#xe979;" glyph-name="arrow-u-down-left-bold" data-tags="arrow-u-down-left-bold" d="M944 512c-0.159-150.157-121.843-271.841-271.985-272h-428.015l110.080-110.040c8.701-8.701 14.083-20.722 14.083-34 0-26.556-21.528-48.083-48.083-48.083-13.278 0-25.299 5.382-34 14.083l-192 192c-8.721 8.692-14.118 20.716-14.118 34s5.396 25.308 14.116 33.999l192.001 192.001c8.701 8.701 20.722 14.083 34 14.083 26.556 0 48.083-21.528 48.083-48.083 0-13.278-5.382-25.299-14.083-34v0l-110.080-109.96h428c97.202 0 176 78.798 176 176s-78.798 176-176 176v0h-352c-26.51 0-48 21.49-48 48s21.49 48 48 48v0h352c150.157-0.159 271.841-121.843 272-271.985v-0.015z" />
<glyph unicode="&#xe97a;" glyph-name="arrow-u-down-right-bold" data-tags="arrow-u-down-right-bold" d="M929.96 254.040l-192-192c-8.701-8.701-20.722-14.083-34-14.083-26.556 0-48.083 21.528-48.083 48.083 0 13.278 5.382 25.299 14.083 34l110.040 109.96h-428c-150.221 0-272 121.779-272 272s121.779 272 272 272v0h352c26.51 0 48-21.49 48-48s-21.49-48-48-48v0h-352c-97.202 0-176-78.798-176-176s78.798-176 176-176v0h428l-110.080 110.040c-8.701 8.701-14.083 20.722-14.083 34 0 26.556 21.528 48.083 48.083 48.083 13.278 0 25.299-5.382 34-14.083l192-192c8.733-8.694 14.138-20.726 14.138-34.020 0-13.274-5.388-25.29-14.097-33.979l-0.001-0.001z" />
<glyph unicode="&#xe97b;" glyph-name="arrow-u-left-down-bold" data-tags="arrow-u-left-down-bold" d="M848 608v-352c0-26.51-21.49-48-48-48s-48 21.49-48 48v0 352c0 97.202-78.798 176-176 176s-176-78.798-176-176v0-428l110.040 110.080c8.701 8.701 20.722 14.083 34 14.083 26.556 0 48.083-21.528 48.083-48.083 0-13.278-5.382-25.299-14.083-34l-192-192c-8.692-8.721-20.716-14.118-34-14.118s-25.308 5.396-33.999 14.116l-192.001 192.001c-8.701 8.701-14.083 20.722-14.083 34 0 26.556 21.528 48.083 48.083 48.083 13.278 0 25.299-5.382 34-14.083v0l109.96-110.080v428c0 150.221 121.779 272 272 272s272-121.779 272-272v0z" />
<glyph unicode="&#xe97c;" glyph-name="arrow-u-left-up-bold" data-tags="arrow-u-left-up-bold" d="M848 640v-352c0-150.221-121.779-272-272-272s-272 121.779-272 272v0 428l-110.040-109.96c-8.701-8.701-20.722-14.083-34-14.083-26.556 0-48.083 21.528-48.083 48.083 0 13.278 5.382 25.299 14.083 34l192 192c8.692 8.721 20.716 14.118 34 14.118s25.308-5.396 33.999-14.116l192.001-192.001c8.701-8.701 14.083-20.722 14.083-34 0-26.556-21.528-48.083-48.083-48.083-13.278 0-25.299 5.382-34 14.083l-109.96 109.96v-428c0-97.202 78.798-176 176-176s176 78.798 176 176v0 352c0 26.51 21.49 48 48 48s48-21.49 48-48v0z" />
<glyph unicode="&#xe97d;" glyph-name="arrow-up-bold" data-tags="arrow-up-bold" d="M833.96 478.040c-8.692-8.721-20.716-14.118-34-14.118s-25.308 5.396-33.999 14.116l-205.961 205.961v-588c0-26.51-21.49-48-48-48s-48 21.49-48 48v0 588l-206.040-205.96c-8.701-8.701-20.722-14.083-34-14.083-26.556 0-48.083 21.528-48.083 48.083 0 13.278 5.382 25.299 14.083 34l288 288c8.692 8.721 20.716 14.118 34 14.118s25.308-5.396 33.999-14.116l288.001-288.001c8.721-8.692 14.118-20.716 14.118-34s-5.396-25.308-14.116-33.999l-0.001-0.001z" />
<glyph unicode="&#xe97e;" glyph-name="arrow-up-left-bold" data-tags="arrow-up-left-bold" d="M801.96 158.040c-8.692-8.721-20.716-14.118-34-14.118s-25.308 5.396-33.999 14.116l-429.961 429.961v-300c0-26.51-21.49-48-48-48s-48 21.49-48 48v0 416c0 26.51 21.49 48 48 48v0h416c26.51 0 48-21.49 48-48s-21.49-48-48-48v0h-300l429.96-430.040c8.698-8.688 14.078-20.696 14.078-33.96s-5.38-25.272-14.077-33.96v0z" />
<glyph unicode="&#xe97f;" glyph-name="arrow-up-right-bold" data-tags="arrow-up-right-bold" d="M816 704v-416c0-26.51-21.49-48-48-48s-48 21.49-48 48v0 300l-430.040-429.96c-8.701-8.701-20.722-14.083-34-14.083-26.556 0-48.083 21.528-48.083 48.083 0 13.278 5.382 25.299 14.083 34l430.040 429.96h-300c-26.51 0-48 21.49-48 48s21.49 48 48 48v0h416c26.51 0 48-21.49 48-48v0z" />
<glyph unicode="&#xe980;" glyph-name="arrow-u-right-down-bold" data-tags="arrow-u-right-down-bold" d="M897.96 222.040l-192-192c-8.692-8.721-20.716-14.118-34-14.118s-25.308 5.396-33.999 14.116l-192.001 192.001c-8.701 8.701-14.083 20.722-14.083 34 0 26.556 21.528 48.083 48.083 48.083 13.278 0 25.299-5.382 34-14.083l110.040-110.040v428c0 97.202-78.798 176-176 176s-176-78.798-176-176v0-352c0-26.51-21.49-48-48-48s-48 21.49-48 48v0 352c0 150.221 121.779 272 272 272s272-121.779 272-272v0-428l110.040 110.080c8.701 8.701 20.722 14.083 34 14.083 26.556 0 48.083-21.528 48.083-48.083 0-13.278-5.382-25.299-14.083-34v0z" />
<glyph unicode="&#xe981;" glyph-name="arrow-u-right-up-bold" data-tags="arrow-u-right-up-bold" d="M897.96 606.040c-8.692-8.721-20.716-14.118-34-14.118s-25.308 5.396-33.999 14.116l-109.961 109.961v-428c0-150.221-121.779-272-272-272s-272 121.779-272 272v0 352c0 26.51 21.49 48 48 48s48-21.49 48-48v0-352c0-97.202 78.798-176 176-176s176 78.798 176 176v0 428l-110.040-109.96c-8.701-8.701-20.722-14.083-34-14.083-26.556 0-48.083 21.528-48.083 48.083 0 13.278 5.382 25.299 14.083 34l192 192c8.692 8.721 20.716 14.118 34 14.118s25.308-5.396 33.999-14.116l192.001-192.001c8.721-8.692 14.118-20.716 14.118-34s-5.396-25.308-14.116-33.999l-0.001-0.001z" />
<glyph unicode="&#xe982;" glyph-name="arrow-u-up-left-bold" data-tags="arrow-u-up-left-bold" d="M944 384c-0.159-150.157-121.843-271.841-271.985-272h-352.015c-26.51 0-48 21.49-48 48s21.49 48 48 48v0h352c97.202 0 176 78.798 176 176s-78.798 176-176 176v0h-428l110.080-110.040c8.701-8.701 14.083-20.722 14.083-34 0-26.556-21.528-48.083-48.083-48.083-13.278 0-25.299 5.382-34 14.083l-192 192c-8.721 8.692-14.118 20.716-14.118 34s5.396 25.308 14.116 33.999l192.001 192.001c8.701 8.701 20.722 14.083 34 14.083 26.556 0 48.083-21.528 48.083-48.083 0-13.278-5.382-25.299-14.083-34v0l-110.080-109.96h428c150.148-0.182 271.818-121.852 272-271.982v-0.018z" />
<glyph unicode="&#xe983;" glyph-name="arrow-u-up-right-bold" data-tags="arrow-u-up-right-bold" d="M670.040 449.96l109.96 110.040h-428c-97.202 0-176-78.798-176-176s78.798-176 176-176v0h352c26.51 0 48-21.49 48-48s-21.49-48-48-48v0h-352c-150.221 0-272 121.779-272 272s121.779 272 272 272v0h428l-109.96 110.040c-8.701 8.701-14.083 20.722-14.083 34 0 26.556 21.528 48.083 48.083 48.083 13.278 0 25.299-5.382 34-14.083l192-192c8.721-8.692 14.118-20.716 14.118-34s-5.396-25.308-14.116-33.999l-192.001-192.001c-8.701-8.701-20.722-14.083-34-14.083-26.556 0-48.083 21.528-48.083 48.083 0 13.278 5.382 25.299 14.083 34v0z" />
<glyph unicode="&#xe984;" glyph-name="article-bold" data-tags="article-bold" d="M864 816h-704c-44.183 0-80-35.817-80-80v0-576c0-44.183 35.817-80 80-80v0h704c44.183 0 80 35.817 80 80v0 576c0 44.183-35.817 80-80 80v0zM848 176h-672v544h672zM272 592c0 26.51 21.49 48 48 48v0h384c26.51 0 48-21.49 48-48s-21.49-48-48-48v0h-384c-26.51 0-48 21.49-48 48v0zM272 448c0 26.51 21.49 48 48 48v0h384c26.51 0 48-21.49 48-48s-21.49-48-48-48v0h-384c-26.51 0-48 21.49-48 48v0zM272 304c0 26.51 21.49 48 48 48v0h384c26.51 0 48-21.49 48-48s-21.49-48-48-48v0h-384c-26.51 0-48 21.49-48 48v0z" />
</font>
</defs>
</svg>
