<?xml version="1.0" standalone="no"?>
<!DOCTYPE svg PUBLIC "-//W3C//DTD SVG 1.1//EN" "http://www.w3.org/Graphics/SVG/1.1/DTD/svg11.dtd" >
<svg xmlns="http://www.w3.org/2000/svg">
<metadata>
<json>
<![CDATA[
{
	"fontFamily": "Phosphor-Duotone",
	"majorVersion": 2,
	"minorVersion": 0,
	"fontURL": "https://phosphoricons.com",
	"copyright": "2023",
	"designer": "Helena Zhang & Tobias Fried",
	"designerURL": "https://phosphoricons.com",
	"license": "MIT",
	"licenseURL": "https://github.com/phosphor-icons/homepage/blob/master/LICENSE",
	"version": "Version 2.0",
	"fontId": "Phosphor-Duotone",
	"psName": "Phosphor-Duotone",
	"subFamily": "Regular",
	"fullName": "Phosphor-Duotone",
	"description": "Font generated by IcoMoon."
}
]]>
</json>
</metadata>
<defs>
<font id="Phosphor-Duotone" horiz-adv-x="1024">
<font-face units-per-em="1024" ascent="960" descent="-64" />
<missing-glyph horiz-adv-x="1024" />
<glyph unicode="&#x20;" horiz-adv-x="512" d="" />
<glyph unicode="&#xe900;" d="M832 832h-576c-17.673 0-32-14.327-32-32v0-704c0-17.673 14.327-32 32-32v0h576c17.673 0 32 14.327 32 32v0 704c0 17.673-14.327 32-32 32v0zM544 384c-70.692 0-128 57.308-128 128s57.308 128 128 128c70.692 0 128-57.308 128-128v0c0-70.692-57.308-128-128-128v0z" />
<glyph unicode="&#xe901;" d="M332.76 262.4c5.286-4.007 11.974-6.419 19.226-6.419 10.441 0 19.715 5.001 25.556 12.738l0.059 0.081c38.35 50.747 98.585 83.2 166.4 83.2s128.050-32.453 166.021-82.677l0.379-0.523c5.9-7.807 15.167-12.8 25.6-12.8 17.673 0 32 14.327 32 32 0 7.24-2.404 13.919-6.458 19.28l0.058-0.080c-28.241 37.584-65.16 67.174-107.866 86.075l-1.734 0.685c32.079 29.362 52.12 71.421 52.12 118.161 0 88.366-71.634 160-160 160s-160-71.634-160-160c0-46.739 20.041-88.798 51.999-118.051l0.121-0.109c-44.535-19.552-81.538-49.149-109.34-86.067l-0.5-0.693c-4.004-5.285-6.414-11.971-6.414-19.219 0-10.422 4.982-19.68 12.695-25.523l0.080-0.058zM448 512c0 53.019 42.981 96 96 96s96-42.981 96-96c0-53.019-42.981-96-96-96v0c-53.019 0-96 42.981-96 96v0zM832 864h-576c-35.346 0-64-28.654-64-64v0-96h-64c-17.673 0-32-14.327-32-32s14.327-32 32-32v0h64v-160h-64c-17.673 0-32-14.327-32-32s14.327-32 32-32v0h64v-160h-64c-17.673 0-32-14.327-32-32s14.327-32 32-32v0h64v-96c0-35.346 28.654-64 64-64v0h576c35.346 0 64 28.654 64 64v0 704c0 35.346-28.654 64-64 64v0zM832 96h-576v704h576z" />
<glyph unicode="&#xe902;" d="M608 352v-128l64-64v-128l-160 64-160-64v128l64 64v128l-320-64v128l320 160v192c0 53.019 42.981 96 96 96s96-42.981 96-96v0-192l320-160v-128z" />
<glyph unicode="&#xe903;" d="M942.32 444.64l-302.32 151.12v172.24c0 70.692-57.308 128-128 128s-128-57.308-128-128v0-172.24l-302.32-151.12c-10.567-5.373-17.68-16.164-17.68-28.617 0-0.008 0-0.016 0-0.024v0.001-128c0.010-17.665 14.333-31.982 32-31.982 2.222 0 4.392 0.227 6.487 0.658l-0.207-0.036 281.72 56.32v-75.72l-54.64-54.6c-5.783-5.79-9.36-13.785-9.36-22.615 0-0.009 0-0.018 0-0.027v0.001-128c0-0.016 0-0.036 0-0.055 0-17.673 14.327-32 32-32 4.325 0 8.449 0.858 12.213 2.413l-0.213-0.078 148 59.24 148-59.24c3.551-1.477 7.675-2.335 12-2.335 17.673 0 32 14.327 32 32 0 0.019 0 0.039 0 0.058v-0.003 128c0 0.007 0 0.016 0 0.025 0 8.83-3.577 16.825-9.36 22.615v0l-54.64 54.6v75.72l281.72-56.32c1.888-0.396 4.058-0.622 6.28-0.622 17.667 0 31.99 14.317 32 31.981v128.001c0 0.007 0 0.015 0 0.023 0 12.453-7.113 23.245-17.498 28.533l-0.182 0.084zM896 327.040l-281.72 56.32c-1.888 0.396-4.058 0.622-6.28 0.622-17.667 0-31.99-14.317-32-31.981v-128.001c0-0.007 0-0.016 0-0.025 0-8.83 3.577-16.825 9.36-22.615v0l54.64-54.6v-67.48l-116 46.44c-3.517 1.447-7.601 2.287-11.88 2.287s-8.363-0.84-12.094-2.364l0.214 0.077-116.24-46.44v67.48l54.64 54.6c5.783 5.79 9.36 13.785 9.36 22.615 0 0.009 0 0.018 0 0.027v-0.001 128c-0.010 17.665-14.333 31.982-32 31.982-2.222 0-4.392-0.227-6.487-0.658l0.207 0.036-281.72-56.32v69.2l302.32 151.12c10.567 5.373 17.68 16.164 17.68 28.617 0 0.008 0 0.016 0 0.024v-0.001 192c0 35.346 28.654 64 64 64s64-28.654 64-64v0-192c0-0.007 0-0.015 0-0.023 0-12.453 7.113-23.245 17.498-28.533l0.182-0.084 302.32-151.12z" />
<glyph unicode="&#xe904;" d="M960 416v-96h-715.76c-0.001 0-0.003 0-0.004 0-57.569 0-106.261 38.005-122.356 90.293l-0.24 0.907-56.28 187.6c-0.857 2.753-1.351 5.919-1.351 9.2 0 17.67 14.322 31.995 31.991 32h32l96-96h147.64l-49.96 149.88c-1.041 3.020-1.642 6.5-1.642 10.12 0 17.66 14.305 31.979 31.96 32h32.002l192-192h256c70.692 0 128-57.308 128-128v0z" />
<glyph unicode="&#xe905;" d="M896 96c0-17.673-14.327-32-32-32v0h-576c-17.673 0-32 14.327-32 32s14.327 32 32 32v0h576c17.673 0 32-14.327 32-32v0zM992 416v-96c0-17.673-14.327-32-32-32v0h-715.72c-0.216-0.001-0.472-0.002-0.729-0.002-71.788 0-132.463 47.575-152.219 112.916l-0.293 1.126-56.28 187.56c-1.714 5.507-2.702 11.838-2.702 18.4 0 35.326 28.621 63.967 63.939 64h32.003c8.825-0.004 16.814-3.58 22.6-9.36l86.68-86.64h89.96l-36 107.76c-2.082 6.040-3.285 12.999-3.285 20.24 0 35.346 28.654 64 64 64 0.016 0 0.031 0 0.047 0h31.998c0.007 0 0.016 0 0.025 0 8.83 0 16.825-3.577 22.615-9.36v0l182.64-182.64h242.72c88.366 0 160-71.634 160-160v0zM928 416c0 53.019-42.981 96-96 96v0h-256c-8.825 0.004-16.814 3.58-22.6 9.36v0l-182.64 182.64h-18.76l49.96-149.88c1.041-3.020 1.642-6.5 1.642-10.12 0-17.66-14.305-31.979-31.96-32h-147.642c-0.007 0-0.016 0-0.025 0-8.83 0-16.825 3.577-22.615 9.36v0l-86.6 86.64h-18.76l56.28-187.6c12.036-39.868 48.436-68.401 91.5-68.401 0.176 0 0.351 0 0.527 0.001h683.693z" />
<glyph unicode="&#xe906;" d="M896 366.72v-142.72l-706.52 197.84c-54.36 15.585-93.472 64.844-93.48 123.239v222.921c0 0.001 0 0.002 0 0.002 0 17.673 14.327 32 32 32 3.62 0 7.1-0.601 10.345-1.709l-0.225 0.067 21.88-7.32 48-132.88 176-50.16v160c0 0.001 0 0.002 0 0.002 0 17.673 14.327 32 32 32 3.62 0 7.1-0.601 10.345-1.709l-0.225 0.067 21.88-7.32 96-228.8 258.24-72c54.508-15.492 93.76-64.83 93.76-123.335 0-0.065 0-0.13 0-0.195v0.010z" />
<glyph unicode="&#xe907;" d="M992 96c0-17.673-14.327-32-32-32v0h-576c-17.673 0-32 14.327-32 32s14.327 32 32 32v0h576c17.673 0 32-14.327 32-32v0zM887.36 193.2l-706.52 197.84c-67.863 19.63-116.675 81.132-116.84 154.061v222.899c0 0.001 0 0.003 0 0.005 0 35.346 28.654 64 64 64 7.241 0 14.2-1.202 20.691-3.418l-0.451 0.134 21.88-7.28c9.334-3.167 16.597-10.259 19.928-19.258l0.072-0.222 42.4-117.48 119.48-34.040v117.56c0 0.001 0 0.003 0 0.005 0 35.346 28.654 64 64 64 7.241 0 14.2-1.202 20.691-3.418l-0.451 0.134 21.88-7.28c8.824-3.002 15.774-9.495 19.321-17.791l0.079-0.209 90-214.52 243.36-68c68.012-19.552 116.959-81.138 117.12-154.181v-142.739c-0.007-17.668-14.331-31.988-32-31.988-3.076 0-6.051 0.434-8.866 1.244l0.226-0.056zM864 366.72c-0.12 43.844-29.502 80.792-69.64 92.352l-0.68 0.168-258.28 72c-9.518 2.711-17.082 9.462-20.841 18.232l-0.079 0.208-90.48 215.64-8 2.68v-160c0-0.007 0-0.014 0-0.022 0-17.673-14.327-32-32-32-3.12 0-6.135 0.446-8.986 1.279l0.226-0.057-176 50.16c-9.973 2.923-17.786 10.303-21.249 19.778l-0.071 0.222-42.76 118.28-7.16 2.36v-222.88c0.112-43.777 29.399-80.684 69.439-92.311l0.681-0.169 665.88-186.44z" />
<glyph unicode="&#xe908;" d="M960 593.44l-589.64-352c-18.456-10.928-40.677-17.385-64.407-17.385-33.918 0-64.755 13.193-87.66 34.727l0.067-0.062-144.24 141.28c-6.233 5.853-10.116 14.147-10.116 23.347 0 13.118 7.893 24.393 19.19 29.333l0.206 0.080 12.6 6.16 127.16-42.92 128.84 77.96-117.4 114.040c-6.517 5.882-10.595 14.358-10.595 23.787 0 13.118 7.893 24.392 19.189 29.333l0.206 0.080 28.6 10.8 230.12-84.68 219.36 131c18.577 11.113 40.98 17.684 64.918 17.684 39.84 0 75.429-18.202 98.905-46.743l0.177-0.221z" />
<glyph unicode="&#xe909;" d="M704 96c0-17.673-14.327-32-32-32v0h-576c-17.673 0-32 14.327-32 32s14.327 32 32 32v0h576c17.673 0 32-14.327 32-32v0zM991.44 587.4c-1.777-9.216-7.304-16.882-14.897-21.48l-0.143-0.080-589.64-352c-23.202-13.833-51.159-22.030-81.026-22.080h-0.014c-42.298 0.050-80.723 16.596-109.193 43.549l0.073-0.069-0.48 0.48-144.12 141.080c-12.287 11.685-19.929 28.154-19.929 46.409 0 25.89 15.373 48.189 37.489 58.268l0.401 0.163 12 5.88c4.115 2.066 8.968 3.275 14.102 3.275 3.656 0 7.17-0.613 10.443-1.743l-0.225 0.068 113.040-38.16 80.68 48.8-87.32 84.76c-12.706 11.733-20.635 28.475-20.635 47.069 0 26.222 15.77 48.761 38.344 58.65l0.411 0.161 1.28 0.52 28.6 10.84c3.322 1.277 7.164 2.017 11.18 2.017s7.858-0.74 11.4-2.090l-0.22 0.074 215.76-79.28 206.28 123.12c23.277 14.077 51.397 22.407 81.462 22.407 49.779 0 94.224-22.835 123.432-58.601l0.227-0.286 0.48-0.6 74.56-95.56c4.209-5.366 6.749-12.215 6.749-19.657 0-2.087-0.2-4.128-0.582-6.104l0.032 0.201zM912.48 602.2l-52 66.68c-17.651 21.475-44.216 35.066-73.955 35.066-17.994 0-34.826-4.976-49.196-13.626l0.431 0.24-219.2-130.88c-4.701-2.833-10.376-4.508-16.443-4.508-3.961 0-7.755 0.714-11.26 2.021l0.223-0.073-219.080 80.56-16-6.12 0.84-0.8 117.44-113.96c5.986-5.821 9.7-13.952 9.7-22.95 0-11.545-6.114-21.662-15.281-27.29l-0.139-0.080-128.84-77.96c-4.718-2.894-10.431-4.608-16.544-4.608-3.671 0-7.197 0.618-10.481 1.756l0.225-0.068-114.68 38.68-0.76-0.4-1.48-0.68c0.196-0.141 0.367-0.299 0.517-0.476l0.003-0.004 144-141.040c17.027-16.029 40.028-25.88 65.33-25.88 17.827 0 34.512 4.89 48.787 13.401l-0.437-0.242z" />
<glyph unicode="&#xe90a;" d="M836 636l-132-124 128-352-96-96-192 288-96-96v-96l-96-96-64 160-160 64 96 96h96l96 96-288 192 96 96 352-128 124 132c17.403 17.403 41.444 28.167 68 28.167 53.111 0 96.167-43.055 96.167-96.167 0-26.556-10.764-50.597-28.167-68v0z" />
<glyph unicode="&#xe90b;" d="M741.32 503.16l117.24 110.36c23.166 23.166 37.495 55.17 37.495 90.52 0 70.701-57.314 128.015-128.015 128.015-35.35 0-67.354-14.329-90.52-37.495v0l-110.36-117.24-332 120.8c-3.253 1.221-7.013 1.927-10.938 1.927-8.834 0-16.832-3.58-22.622-9.367l-96-96c-5.785-5.79-9.364-13.786-9.364-22.618 0-11.055 5.606-20.801 14.13-26.549l0.114-0.072 255.56-170.36-59.28-59.080h-82.76c-8.825-0.004-16.814-3.58-22.6-9.36v0l-96-96c-5.807-5.794-9.4-13.805-9.4-22.655 0-13.348 8.173-24.788 19.788-29.587l0.212-0.078 147.28-58.92 59.040-147.64c4.93-11.71 16.31-19.782 29.576-19.782 9.097 0 17.307 3.796 23.133 9.89l0.011 0.012 95.48 95.52c5.824 5.77 9.442 13.759 9.48 22.593v82.767l59.040 59.040 170.36-255.56c5.821-8.638 15.567-14.244 26.622-14.244 8.832 0 16.828 3.578 22.619 9.364l96 96c5.788 5.79 9.367 13.788 9.367 22.622 0 3.925-0.707 7.685-1.999 11.159l0.072-0.221zM741.040 114.24l-170.36 255.56c-5.225 7.828-13.639 13.176-23.342 14.188l-0.138 0.012c-0.472 0.028-1.024 0.044-1.58 0.044s-1.108-0.016-1.656-0.048l0.076 0.003c-0.007 0-0.016 0-0.025 0-8.83 0-16.825-3.577-22.615-9.36v0l-96-96c-5.804-5.79-9.396-13.795-9.4-22.639v-82.761l-52.28-52.28-46 115.040c-3.323 8.096-9.625 14.397-17.507 17.642l-0.213 0.078-114.96 46 52.24 52.28h82.72c0.007 0 0.016 0 0.025 0 8.83 0 16.825 3.577 22.615 9.36v0l96 96c5.8 5.792 9.388 13.798 9.388 22.642 0 11.065-5.616 20.818-14.153 26.565l-0.114 0.072-255.52 170.4 54 53.96 332.88-121.040c3.281-1.244 7.075-1.964 11.037-1.964 9.127 0 17.361 3.821 23.191 9.95l0.013 0.013 123.76 131.52c11.346 10.419 26.541 16.805 43.228 16.805 35.346 0 64-28.654 64-64 0-16.657-6.363-31.827-16.791-43.213l0.043 0.048-131.48-123.76c-6.143-5.842-9.964-14.077-9.964-23.203 0-3.962 0.72-7.755 2.036-11.257l-0.073 0.221 121.040-332.88z" />
<glyph unicode="&#xe90c;" d="M896 704v-448c0-35.346-28.654-64-64-64v0h-210.28l-109.72 128-109.72-128h-210.28c-35.346 0-64 28.654-64 64v0 448c0 35.346 28.654 64 64 64v0h640c35.346 0 64-28.654 64-64v0z" />
<glyph unicode="&#xe90d;" d="M536.32 340.84c-5.904 6.861-14.598 11.179-24.3 11.179s-18.396-4.318-24.265-11.137l-0.035-0.042-192-224c-4.796-5.563-7.716-12.86-7.716-20.84 0-17.672 14.325-31.998 31.996-32h384c17.672 0.002 31.996 14.328 31.996 32 0 7.98-2.921 15.277-7.751 20.882l0.035-0.042zM389.56 128l122.44 142.84 122.44-142.84zM928 704v-448c0-53.019-42.981-96-96-96v0h-64c-17.673 0-32 14.327-32 32s14.327 32 32 32v0h64c17.673 0 32 14.327 32 32v0 448c0 17.673-14.327 32-32 32v0h-640c-17.673 0-32-14.327-32-32v0-448c0-17.673 14.327-32 32-32v0h64c17.673 0 32-14.327 32-32s-14.327-32-32-32v0h-64c-53.019 0-96 42.981-96 96v0 448c0 53.019 42.981 96 96 96v0h640c53.019 0 96-42.981 96-96v0z" />
<glyph unicode="&#xe90e;" d="M894.040 661.080l-104.72-288c-4.596-12.401-16.324-21.080-30.079-21.080 0 0-0.001 0-0.001 0h-494.48c0 0-0.001 0-0.001 0-13.755 0-25.483 8.679-30.007 20.859l-0.072 0.221-104.72 288c-1.217 3.248-1.921 7.002-1.921 10.92 0 17.659 14.305 31.978 31.959 32h704.002c17.656-0.022 31.961-14.341 31.961-32 0-3.918-0.704-7.672-1.993-11.141l0.072 0.221z" />
<glyph unicode="&#xe90f;" d="M916.44 708.72c-11.725 16.584-30.822 27.28-52.418 27.28-0.008 0-0.015 0-0.023 0h-319.999v128h64c17.673 0 32 14.327 32 32s-14.327 32-32 32v0h-192c-17.673 0-32-14.327-32-32s14.327-32 32-32v0h64v-128h-320c-35.284-0.082-63.856-28.704-63.856-64 0-7.851 1.414-15.372 4.001-22.323l-0.144 0.442 104.76-288c9.187-24.737 32.563-42.056 59.992-42.12h119.248v-256c0-17.673 14.327-32 32-32s32 14.327 32 32v0 256h128v-256c0-17.673 14.327-32 32-32s32 14.327 32 32v0 256h119.28c27.437 0.064 50.813 17.383 59.856 41.678l0.144 0.442 104.76 288c2.47 6.541 3.899 14.103 3.899 21.998 0 13.7-4.305 26.394-11.635 36.805l0.135-0.203zM442.72 384l-52.4 288h243.36l-52.4-288zM160 672h165.28l52.36-288h-112.92zM759.28 384h-112.92l52.36 288h165.28z" />
<glyph unicode="&#xe910;" d="M864 448c0-194.404-157.596-352-352-352s-352 157.596-352 352c0 194.404 157.596 352 352 352v0c194.404 0 352-157.596 352-352v0z" />
<glyph unicode="&#xe911;" d="M512 832c-212.077 0-384-171.923-384-384s171.923-384 384-384c212.077 0 384 171.923 384 384v0c-0.25 211.976-172.023 383.75-383.976 384h-0.024zM512 128c-176.731 0-320 143.269-320 320s143.269 320 320 320c176.731 0 320-143.269 320-320v0c-0.205-176.648-143.351-319.795-319.98-320h-0.020zM246.64 841.36l-128-128c-5.794-5.794-13.799-9.378-22.64-9.378-17.683 0-32.018 14.335-32.018 32.018 0 8.841 3.584 16.846 9.378 22.64l128 128c5.794 5.794 13.799 9.378 22.64 9.378 17.683 0 32.018-14.335 32.018-32.018 0-8.841-3.584-16.846-9.378-22.64v0zM950.64 713.36c-5.792-5.798-13.797-9.385-22.64-9.385s-16.848 3.587-22.64 9.385v0l-128 128c-5.794 5.794-9.378 13.799-9.378 22.64 0 17.683 14.335 32.018 32.018 32.018 8.841 0 16.846-3.584 22.64-9.378v0l128-128c5.798-5.792 9.385-13.797 9.385-22.64s-3.587-16.848-9.385-22.64v0zM736 480c17.673 0 32-14.327 32-32s-14.327-32-32-32v0h-224c-17.673 0-32 14.327-32 32v0 224c0 17.673 14.327 32 32 32s32-14.327 32-32v0-192z" />
<glyph unicode="&#xe912;" d="M512 864c-194.404 0-352-157.596-352-352v0c0-194.4 224-480 352-480s352 285.6 352 480c0 194.404-157.596 352-352 352v0zM416 384c-70.692 0-128 57.308-128 128v0c0 17.673 14.327 32 32 32v0c70.692 0 128-57.308 128-128v0c0-17.673-14.327-32-32-32v0zM608 384c-17.673 0-32 14.327-32 32v0c0 70.692 57.308 128 128 128v0c17.673 0 32-14.327 32-32v0c0-70.692-57.308-128-128-128v0z" />
<glyph unicode="&#xe913;" d="M512 896c-211.976-0.25-383.75-172.023-384-383.976v-0.024c0-96 50.24-220.24 134.44-332 84.72-112.6 178-180 249.56-180s164.84 67.24 249.56 180c84.2 112 134.44 236 134.44 332-0.25 211.976-172.023 383.75-383.976 384h-0.024zM710.44 218.32c-69.48-92.28-149.2-154.32-198.44-154.32s-128.96 62.040-198.44 154.32c-74.96 99.68-121.56 212.2-121.56 293.68 0 176.731 143.269 320 320 320s320-143.269 320-320v0c0-81.48-46.6-194-121.56-293.68zM480 416c0 88.366-71.634 160-160 160v0c-35.346 0-64-28.654-64-64v0c0-88.366 71.634-160 160-160v0c35.346 0 64 28.654 64 64v0zM320 512c53.019 0 96-42.981 96-96v0 0c-53.019 0-96 42.981-96 96v0zM704 576c-88.366 0-160-71.634-160-160v0c0-35.346 28.654-64 64-64v0c88.366 0 160 71.634 160 160v0c0 35.346-28.654 64-64 64v0zM608 416c0 53.019 42.981 96 96 96v0c0-53.019-42.981-96-96-96v0zM608 224c0-17.673-14.327-32-32-32v0h-128c-17.673 0-32 14.327-32 32s14.327 32 32 32v0h128c17.673 0 32-14.327 32-32v0z" />
<glyph unicode="&#xe914;" d="M800 640v-384c0-17.673-14.327-32-32-32v0h-160c-17.673 0-32 14.327-32 32v0 384c0 17.673 14.327 32 32 32v0h160c17.673 0 32-14.327 32-32v0zM416 832h-160c-17.673 0-32-14.327-32-32v0-544c0-17.673 14.327-32 32-32v0h160c17.673 0 32 14.327 32 32v0 544c0 17.673-14.327 32-32 32v0z" />
<glyph unicode="&#xe915;" d="M256 192h160c35.346 0 64 28.654 64 64v0 544c0 35.346-28.654 64-64 64v0h-160c-35.346 0-64-28.654-64-64v0-544c0-35.346 28.654-64 64-64v0zM256 800h160v-544h-160zM896 96c0-17.673-14.327-32-32-32v0h-704c-17.673 0-32 14.327-32 32s14.327 32 32 32v0h704c17.673 0 32-14.327 32-32v0zM608 192h160c35.346 0 64 28.654 64 64v0 384c0 35.346-28.654 64-64 64v0h-160c-35.346 0-64-28.654-64-64v0-384c0-35.346 28.654-64 64-64v0zM608 640h160v-384h-160z" />
<glyph unicode="&#xe916;" d="M672 800v-608c0-17.673-14.327-32-32-32v0h-256c-17.673 0-32 14.327-32 32v0 608c0 17.673 14.327 32 32 32v0h256c17.673 0 32-14.327 32-32v0z" />
<glyph unicode="&#xe917;" d="M832 32c0-17.673-14.327-32-32-32v0h-576c-17.673 0-32 14.327-32 32s14.327 32 32 32v0h576c17.673 0 32-14.327 32-32v0zM320 192v608c0 35.346 28.654 64 64 64v0h256c35.346 0 64-28.654 64-64v0-608c0-35.346-28.654-64-64-64v0h-256c-35.346 0-64 28.654-64 64v0zM384 192h256v608h-256z" />
<glyph unicode="&#xe918;" d="M256 544v160c0 17.673 14.327 32 32 32v0h448c17.673 0 32-14.327 32-32v0-160c0-17.673-14.327-32-32-32v0h-448c-17.673 0-32 14.327-32 32v0zM832 384h-640c-17.673 0-32-14.327-32-32v0-160c0-17.673 14.327-32 32-32v0h640c17.673 0 32 14.327 32 32v0 160c0 17.673-14.327 32-32 32v0z" />
<glyph unicode="&#xe919;" d="M832 416h-288v64h192c35.346 0 64 28.654 64 64v0 160c0 35.346-28.654 64-64 64v0h-192v64c0 17.673-14.327 32-32 32s-32-14.327-32-32v0-64h-192c-35.346 0-64-28.654-64-64v0-160c0-35.346 28.654-64 64-64v0h192v-64h-288c-35.346 0-64-28.654-64-64v0-160c0-35.346 28.654-64 64-64v0h288v-64c0-17.673 14.327-32 32-32s32 14.327 32 32v0 64h288c35.346 0 64 28.654 64 64v0 160c0 35.346-28.654 64-64 64v0zM288 704h448v-160h-448zM832 192h-640v160h640v-160z" />
<glyph unicode="&#xe91a;" d="M864 576v-256c0-17.673-14.327-32-32-32v0h-640c-17.673 0-32 14.327-32 32v0 256c0 17.673 14.327 32 32 32v0h640c17.673 0 32-14.327 32-32v0z" />
<glyph unicode="&#xe91b;" d="M832 640h-288v128c0 17.673-14.327 32-32 32s-32-14.327-32-32v0-128h-288c-35.346 0-64-28.654-64-64v0-256c0-35.346 28.654-64 64-64v0h288v-128c0-17.673 14.327-32 32-32s32 14.327 32 32v0 128h288c35.346 0 64 28.654 64 64v0 256c0 35.346-28.654 64-64 64v0zM832 320h-640v256h640v-256z" />
<glyph unicode="&#xe91c;" d="M800 672v-448c0-17.673-14.327-32-32-32v0h-160c-17.673 0-32 14.327-32 32v0 448c0 17.673 14.327 32 32 32v0h160c17.673 0 32-14.327 32-32v0zM416 800h-160c-17.673 0-32-14.327-32-32v0-640c0-17.673 14.327-32 32-32v0h160c17.673 0 32 14.327 32 32v0 640c0 17.673-14.327 32-32 32v0z" />
<glyph unicode="&#xe91d;" d="M896 480h-64v192c0 35.346-28.654 64-64 64v0h-160c-35.346 0-64-28.654-64-64v0-192h-64v288c0 35.346-28.654 64-64 64v0h-160c-35.346 0-64-28.654-64-64v0-288h-64c-17.673 0-32-14.327-32-32s14.327-32 32-32v0h64v-288c0-35.346 28.654-64 64-64v0h160c35.346 0 64 28.654 64 64v0 288h64v-192c0-35.346 28.654-64 64-64v0h160c35.346 0 64 28.654 64 64v0 192h64c17.673 0 32 14.327 32 32s-14.327 32-32 32v0zM416 128h-160v640h160zM768 224h-160v448h160z" />
<glyph unicode="&#xe91e;" d="M672 768v-640c0-17.673-14.327-32-32-32v0h-256c-17.673 0-32 14.327-32 32v0 640c0 17.673 14.327 32 32 32v0h256c17.673 0 32-14.327 32-32v0z" />
<glyph unicode="&#xe91f;" d="M832 480h-128v288c0 35.346-28.654 64-64 64v0h-256c-35.346 0-64-28.654-64-64v0-288h-128c-17.673 0-32-14.327-32-32s14.327-32 32-32v0h128v-288c0-35.346 28.654-64 64-64v0h256c35.346 0 64 28.654 64 64v0 288h128c17.673 0 32 14.327 32 32s-14.327 32-32 32v0zM640 128h-256v640h256z" />
<glyph unicode="&#xe920;" d="M288 544v160c0 17.673 14.327 32 32 32v0h384c17.673 0 32-14.327 32-32v0-160c0-17.673-14.327-32-32-32v0h-384c-17.673 0-32 14.327-32 32v0zM864 384h-544c-17.673 0-32-14.327-32-32v0-160c0-17.673 14.327-32 32-32v0h544c17.673 0 32 14.327 32 32v0 160c0 17.673-14.327 32-32 32v0z" />
<glyph unicode="&#xe921;" d="M864 416h-544c-35.346 0-64-28.654-64-64v0-160c0-35.346 28.654-64 64-64v0h544c35.346 0 64 28.654 64 64v0 160c0 35.346-28.654 64-64 64v0zM864 192h-544v160h544v-160zM192 800v-704c0-17.673-14.327-32-32-32s-32 14.327-32 32v0 704c0 17.673 14.327 32 32 32s32-14.327 32-32v0zM320 480h384c35.346 0 64 28.654 64 64v0 160c0 35.346-28.654 64-64 64v0h-384c-35.346 0-64-28.654-64-64v0-160c0-35.346 28.654-64 64-64v0zM320 704h384v-160h-384z" />
<glyph unicode="&#xe922;" d="M928 576v-256c0-17.673-14.327-32-32-32v0h-608c-17.673 0-32 14.327-32 32v0 256c0 17.673 14.327 32 32 32v0h608c17.673 0 32-14.327 32-32v0z" />
<glyph unicode="&#xe923;" d="M160 736v-576c0-17.673-14.327-32-32-32s-32 14.327-32 32v0 576c0 17.673 14.327 32 32 32s32-14.327 32-32v0zM960 576v-256c0-35.346-28.654-64-64-64v0h-608c-35.346 0-64 28.654-64 64v0 256c0 35.346 28.654 64 64 64v0h608c35.346 0 64-28.654 64-64v0zM896 320v256h-608v-256h608z" />
<glyph unicode="&#xe924;" d="M736 704v-160c0-17.673-14.327-32-32-32v0h-384c-17.673 0-32 14.327-32 32v0 160c0 17.673 14.327 32 32 32v0h384c17.673 0 32-14.327 32-32v0zM704 384h-544c-17.673 0-32-14.327-32-32v0-160c0-17.673 14.327-32 32-32v0h544c17.673 0 32 14.327 32 32v0 160c0 17.673-14.327 32-32 32v0z" />
<glyph unicode="&#xe925;" d="M896 800v-704c0-17.673-14.327-32-32-32s-32 14.327-32 32v0 704c0 17.673 14.327 32 32 32s32-14.327 32-32v0zM768 704v-160c0-35.346-28.654-64-64-64v0h-384c-35.346 0-64 28.654-64 64v0 160c0 35.346 28.654 64 64 64v0h384c35.346 0 64-28.654 64-64v0zM704 704h-384v-160h384zM768 352v-160c0-35.346-28.654-64-64-64v0h-544c-35.346 0-64 28.654-64 64v0 160c0 35.346 28.654 64 64 64v0h544c35.346 0 64-28.654 64-64v0zM704 352h-544v-160h544z" />
<glyph unicode="&#xe926;" d="M768 576v-256c0-17.673-14.327-32-32-32v0h-608c-17.673 0-32 14.327-32 32v0 256c0 17.673 14.327 32 32 32v0h608c17.673 0 32-14.327 32-32v0z" />
<glyph unicode="&#xe927;" d="M928 736v-576c0-17.673-14.327-32-32-32s-32 14.327-32 32v0 576c0 17.673 14.327 32 32 32s32-14.327 32-32v0zM800 576v-256c0-35.346-28.654-64-64-64v0h-608c-35.346 0-64 28.654-64 64v0 256c0 35.346 28.654 64 64 64v0h608c35.346 0 64-28.654 64-64v0zM736 576h-608v-256h608z" />
<glyph unicode="&#xe928;" d="M800 640v-384c0-17.673-14.327-32-32-32v0h-160c-17.673 0-32 14.327-32 32v0 384c0 17.673 14.327 32 32 32v0h160c17.673 0 32-14.327 32-32v0zM416 672h-160c-17.673 0-32-14.327-32-32v0-544c0-17.673 14.327-32 32-32v0h160c17.673 0 32 14.327 32 32v0 544c0 17.673-14.327 32-32 32v0z" />
<glyph unicode="&#xe929;" d="M896 800c0-17.673-14.327-32-32-32v0h-704c-17.673 0-32 14.327-32 32s14.327 32 32 32v0h704c17.673 0 32-14.327 32-32v0zM832 640v-384c0-35.346-28.654-64-64-64v0h-160c-35.346 0-64 28.654-64 64v0 384c0 35.346 28.654 64 64 64v0h160c35.346 0 64-28.654 64-64v0zM768 640h-160v-384h160zM480 640v-544c0-35.346-28.654-64-64-64v0h-160c-35.346 0-64 28.654-64 64v0 544c0 35.346 28.654 64 64 64v0h160c35.346 0 64-28.654 64-64v0zM416 640h-160v-544h160z" />
<glyph unicode="&#xe92a;" d="M672 672v-608c0-17.673-14.327-32-32-32v0h-256c-17.673 0-32 14.327-32 32v0 608c0 17.673 14.327 32 32 32v0h256c17.673 0 32-14.327 32-32v0z" />
<glyph unicode="&#xe92b;" d="M832 832c0-17.673-14.327-32-32-32v0h-576c-17.673 0-32 14.327-32 32s14.327 32 32 32v0h576c17.673 0 32-14.327 32-32v0zM704 672v-608c0-35.346-28.654-64-64-64v0h-256c-35.346 0-64 28.654-64 64v0 608c0 35.346 28.654 64 64 64v0h256c35.346 0 64-28.654 64-64v0zM640 672h-256v-608h256z" />
<glyph unicode="&#xe92c;" d="M672 432c0-97.202-78.798-176-176-176s-176 78.798-176 176c0 97.202 78.798 176 176 176v0c97.202 0 176-78.798 176-176v0z" />
<glyph unicode="&#xe92d;" d="M992 288v-128c0-17.673-14.327-32-32-32s-32 14.327-32 32v0 50.76l-8.84-8.88c-12.4-13.48-161.4-169.88-407.16-169.88-251.36 0-401.52 163.64-407.8 170.6-5.076 5.651-8.181 13.163-8.181 21.4 0 17.718 14.363 32.081 32.081 32.081 9.481 0 18.001-4.113 23.874-10.651l0.026-0.030c1.080-1.4 138-149.4 360-149.4s358.92 148 360.28 149.44c0.355 0.437 0.708 0.828 1.080 1.2v0l9.4 9.36h-50.76c-17.673 0-32 14.327-32 32s14.327 32 32 32v0h128c17.673 0 32-14.327 32-32v0zM640 581.88v42.12c0 0.028 0 0.062 0 0.095 0 79.529-64.471 144-144 144-55.682 0-103.982-31.604-127.942-77.853l-0.378-0.802c-5.416-10.436-16.139-17.444-28.5-17.444-17.675 0-32.004 14.329-32.004 32.004 0 5.315 1.295 10.327 3.588 14.738l-0.084-0.178c35.165 67.929 104.915 113.552 185.32 113.552 114.875 0 208-93.125 208-208 0-0.039 0-0.079 0-0.118v0.006-368c0-17.673-14.327-32-32-32s-32 14.327-32 32v0 26.12c-37.335-35.965-88.191-58.12-144.222-58.12-114.875 0-208 93.125-208 208s93.125 208 208 208c56.031 0 106.887-22.155 144.287-58.182l-0.065 0.062zM640 432c0 79.529-64.471 144-144 144s-144-64.471-144-144c0-79.529 64.471-144 144-144v0c79.529 0 144 64.471 144 144v0z" />
<glyph unicode="&#xe92e;" d="M608 736c0-53.019-42.981-96-96-96s-96 42.981-96 96c0 53.019 42.981 96 96 96v0c53.019 0 96-42.981 96-96v0z" />
<glyph unicode="&#xe92f;" d="M864 416c-17.673 0-32-14.327-32-32v0c0-88.366-71.634-160-160-160v0c-0.033 0-0.072 0-0.112 0-49.257 0-94.163-18.63-128.056-49.229l0.168 0.149v273.080h128c17.673 0 32 14.327 32 32s-14.327 32-32 32v0h-128v100c55.647 14.719 96 64.615 96 123.935 0 70.692-57.308 128-128 128s-128-57.308-128-128c0-59.321 40.353-109.217 95.107-123.734l0.893-0.201v-100h-128c-17.673 0-32-14.327-32-32s14.327-32 32-32v0h128v-273.080c-33.725 30.45-78.631 49.080-127.888 49.080-0.039 0-0.078 0-0.118 0h0.006c-88.366 0-160 71.634-160 160v0c0 17.673-14.327 32-32 32s-32-14.327-32-32v0c0.137-123.657 100.343-223.863 223.987-224h0.013c70.692 0 128-57.308 128-128v0c0-17.673 14.327-32 32-32s32 14.327 32 32v0c0 70.692 57.308 128 128 128v0c123.657 0.137 223.863 100.343 224 223.987v0.013c0 17.673-14.327 32-32 32v0zM448 736c0 35.346 28.654 64 64 64s64-28.654 64-64c0-35.346-28.654-64-64-64v0c-35.346 0-64 28.654-64 64v0z" />
<glyph unicode="&#xe930;" d="M608 704c0-53.019-42.981-96-96-96s-96 42.981-96 96c0 53.019 42.981 96 96 96v0c53.019 0 96-42.981 96-96v0z" />
<glyph unicode="&#xe931;" d="M896 512h-96c-17.673 0-32-14.327-32-32s14.327-32 32-32v0h62.56c-16.147-169.034-149.521-302.394-317.136-318.41l-1.424-0.11v450.52c55.647 14.719 96 64.615 96 123.935 0 70.692-57.308 128-128 128s-128-57.308-128-128c0-59.321 40.353-109.217 95.107-123.734l0.893-0.201v-450.52c-169.039 16.126-302.413 149.486-318.45 317.095l-0.11 1.425h62.56c17.673 0 32 14.327 32 32s-14.327 32-32 32v0h-96c-17.673 0-32-14.327-32-32v0c0-229.75 186.25-416 416-416s416 186.25 416 416v0c0 17.673-14.327 32-32 32v0zM448 704c0 35.346 28.654 64 64 64s64-28.654 64-64c0-35.346-28.654-64-64-64v0c-35.346 0-64 28.654-64 64v0z" />
<glyph unicode="&#xe932;" d="M928 288v-96c0-17.673-14.327-32-32-32v0h-768c-17.673 0-32 14.327-32 32v0 91.48c0 229.92 184.6 419.72 414.52 420.52 0.44 0.002 0.96 0.003 1.48 0.003 229.75 0 416-186.25 416-416 0-0.001 0-0.002 0-0.003v0z" />
<glyph unicode="&#xe933;" d="M704 336c0-26.51-21.49-48-48-48s-48 21.49-48 48c0 26.51 21.49 48 48 48v0c26.51 0 48-21.49 48-48v0zM368 384c-26.51 0-48-21.49-48-48s21.49-48 48-48c26.51 0 48 21.49 48 48v0c0 26.51-21.49 48-48 48v0zM960 288v-96c0-35.346-28.654-64-64-64v0h-768c-35.346 0-64 28.654-64 64v0 91.48c0 0.125 0 0.272 0 0.419 0 129.538 54.309 246.392 141.401 329.033l0.2 0.188-100.24 100.24c-5.794 5.794-9.378 13.799-9.378 22.64 0 17.683 14.335 32.018 32.018 32.018 8.841 0 16.846-3.584 22.64-9.378l104.64-104.64c71.635 51.289 161.034 82.011 257.61 82.011 96.137 0 185.162-30.444 257.963-82.218l-1.372 0.927 104 104c5.794 5.794 13.799 9.378 22.64 9.378 17.683 0 32.018-14.335 32.018-32.018 0-8.841-3.584-16.846-9.378-22.64v0l-99.48-99.44c3-2.84 6-5.72 8.96-8.68 81.379-80.668 131.762-192.49 131.762-316.080 0-0.436-0.001-0.872-0.002-1.307v0.067zM896 288c0 212.077-171.923 384-384 384v0h-1.36c-211-0.72-382.64-175-382.64-388.52v-91.48h768z" />
<glyph unicode="&#xe934;" d="M896 672l-64-480-320-160-320 160-64 480 384 160z" />
<glyph unicode="&#xe935;" d="M908.32 701.52l-384 160c-3.637 1.574-7.871 2.49-12.32 2.49s-8.683-0.916-12.526-2.569l0.206 0.079-384-160c-11.656-4.954-19.68-16.307-19.68-29.533 0-1.49 0.102-2.957 0.299-4.393l-0.019 0.167 64-480c1.466-10.735 8.074-19.659 17.218-24.316l0.182-0.084 320-160c4.172-2.133 9.1-3.383 14.32-3.383s10.148 1.25 14.502 3.467l-0.182-0.084 320 160c9.326 4.741 15.934 13.665 17.381 24.234l0.019 0.166 64 480c0.178 1.27 0.28 2.736 0.28 4.227 0 13.227-8.025 24.579-19.471 29.454l-0.209 0.079zM802.52 213.040l-290.52-145.28-290.52 145.28-58.52 438.96 349.040 145.32 349.040-145.32zM484 623.52l-160-288c-2.526-4.474-4.014-9.823-4.014-15.52 0-17.681 14.333-32.014 32.014-32.014 11.984 0 22.43 6.585 27.917 16.333l0.083 0.161 44 79.52h176l44-79.52c5.57-9.909 16.016-16.494 28-16.494 17.681 0 32.014 14.333 32.014 32.014 0 5.697-1.488 11.046-4.097 15.681l0.083-0.161-160 288c-5.565 9.917-16.013 16.508-28 16.508s-22.435-6.591-27.917-16.347l-0.083-0.161zM564.28 448h-104.56l52.28 94.12z" />
<glyph unicode="&#xe936;" d="M783.52 719.52c-69.491 69.496-165.495 112.48-271.538 112.48-212.077 0-384-171.923-384-384s171.923-384 384-384c106.043 0 202.047 42.984 271.538 112.48v0c69.485 69.489 112.462 165.486 112.462 271.52s-42.977 202.031-112.462 271.52v0zM562.16 307.52v0l-146.72 26.76-50.16 140.52 96.56 113.64 146.72-26.76 50.16-140.48z" />
<glyph unicode="&#xe937;" d="M806.16 742.16c-75.282 75.282-179.283 121.845-294.16 121.845-229.753 0-416.005-186.252-416.005-416.005 0-114.877 46.563-218.878 121.845-294.16v0c75.282-75.282 179.283-121.845 294.16-121.845 229.753 0 416.005 186.252 416.005 416.005 0 114.877-46.563 218.878-121.845 294.16v0zM760.92 696.88c16.016-16.083 30.499-33.717 43.197-52.649l0.803-1.271-134.72-158.96-111.68 312.88c79.747-10.691 149.548-46.891 202.386-99.986l0.014-0.014zM622.36 428l-72.64-85.48-110.36 20-37.72 105.48 72.64 85.48 110.36-20zM263.080 696.88c58.444 58.753 137.627 96.825 225.641 102.31l0.999 0.050 70.040-196-326.56 59.48c9.666 12.544 19.451 23.686 29.892 34.172l-0.012-0.012zM186.6 313.84c-16.683 39.626-26.377 85.688-26.377 134.015 0 56.987 13.479 110.825 37.423 158.501l-0.926-2.036 204.84-37.4zM263.080 199.12c-16.016 16.083-30.499 33.717-43.197 52.649l-0.803 1.271 134.72 158.96 111.68-312.72c-79.73 10.644-149.531 46.79-202.39 99.83l-0.010 0.010zM760.92 199.12c-58.444-58.753-137.627-96.825-225.641-102.31l-0.999-0.050-70.040 196 326.56-59.64c-9.661-12.474-19.445-23.563-29.881-34.001l0.001 0.001zM622.44 329.080l214.96 253.080c16.683-39.626 26.377-85.688 26.377-134.015 0-56.987-13.479-110.825-37.423-158.501l0.926 2.036z" />
<glyph unicode="&#xe938;" d="M864 268.88c-67.16 46.12-96 123.48-96 211.12 0 73.2 46.72 139.24 96 185.92-45.88 43.44-124 70.080-192 70.080-0.176 0-0.384 0.001-0.592 0.001-60.55 0-116.169-21.114-159.896-56.381l0.488 0.381c-42.493 34.295-96.968 55.293-156.324 55.999l-0.156 0.001c-147.52 2-263.28-121.2-259.52-268.76 3.478-132.846 60.578-251.708 150.358-336.254l0.242-0.226c22.85-21.529 53.727-34.76 87.694-34.76 0.037 0 0.074 0 0.111 0h350.794c0.154-0.001 0.336-0.001 0.519-0.001 36.443 0 69.301 15.35 92.462 39.937l0.060 0.064c63.4 68 85.76 132.8 85.76 132.8z" />
<glyph unicode="&#xe939;" d="M893.2 281.64c-2.484 5.586-6.317 10.189-11.096 13.531l-0.104 0.069c-67.88 46.64-82 126.2-82 184.76 0 70.68 53.88 132.24 86 162.68 6.166 5.845 10.002 14.095 10.002 23.24s-3.837 17.395-9.988 23.227l-0.014 0.013c-50.72 47.88-134.72 78.84-214 78.84-59.639-0.055-115.036-18.171-161.028-49.173l1.028 0.653c-44.755 30.38-99.97 48.502-159.418 48.502-79.551 0-151.523-32.452-203.399-84.839l-0.023-0.023c-52.724-53.794-85.263-127.543-85.263-208.891 0-2.753 0.037-5.497 0.111-8.232l-0.009 0.403c3.401-141.75 64.352-268.628 160.288-358.667l0.272-0.253c28.452-26.926 66.959-43.481 109.333-43.481 0.164 0 0.328 0 0.492 0.001h350.695c0.090 0 0.196 0 0.302 0 45.771 0 87.035 19.296 116.101 50.198l0.077 0.082c26.772 28.748 50.405 61.024 69.982 95.884l1.298 2.516c28.080 51.32 24.48 59.32 20.36 68.96zM754.68 157.88c-17.373-18.416-41.941-29.881-69.187-29.881-0.145 0-0.29 0-0.435 0.001h-350.698c-0.091 0-0.199 0-0.306 0-25.369 0-48.423 9.915-65.497 26.082l0.044-0.041c-84.196 78.973-137.56 189.95-140.589 313.413l-0.011 0.547c-0.058 1.943-0.091 4.23-0.091 6.524 0 63.694 25.448 121.445 66.732 163.638l-0.041-0.042c39.832 40.669 95.31 65.881 156.676 65.881 0.255 0 0.509 0 0.764-0.001h3.081c52.086-0.566 99.76-18.998 137.293-49.444l-0.413 0.324c5.426-4.373 12.404-7.020 20-7.020s14.574 2.647 20.062 7.068l-0.062-0.048c37.68 30.595 86.236 49.122 139.118 49.122 0.31 0 0.62-0.001 0.93-0.002h-0.048c53.342-0.639 102.977-15.96 145.211-42.098l-1.211 0.698c-52-58.080-80-121.88-80-182.6 0-95.080 30.56-170.92 88.72-221.2-19.4-38.631-42.758-71.852-70.25-101.146l0.21 0.226zM512.92 840c18.399 69.558 80.768 120 154.919 120 0.056 0 0.113 0 0.169 0h3.991c17.673 0 32-14.327 32-32s-14.327-32-32-32v0h-4c-0.003 0-0.005 0-0.008 0-44.491 0-81.912-30.265-92.801-71.33l-0.151-0.67c-3.68-13.92-16.161-24.016-31-24.016-17.682 0-32.016 14.334-32.016 32.016 0 2.843 0.371 5.599 1.066 8.223l-0.050-0.223z" />
<glyph unicode="&#xe93a;" d="M416 480c0 53.019 42.981 96 96 96s96-42.981 96-96c0-53.019-42.981-96-96-96v0c-53.019 0-96 42.981-96 96v0zM575 384h-126c-0.192 0.002-0.418 0.003-0.644 0.003-35.479 0-64.24-28.761-64.24-64.24 0-5.426 0.673-10.694 1.939-15.726l-0.094 0.443 48.76-192c7.493-28.111 32.724-48.481 62.711-48.481 0.116 0 0.231 0 0.346 0.001h28.462c0.098-0.001 0.213-0.001 0.329-0.001 29.988 0 55.218 20.37 62.609 48.028l0.103 0.453 48.76 192c1.172 4.589 1.844 9.858 1.844 15.283 0 35.479-28.761 64.24-64.24 64.24-0.227 0-0.453-0.001-0.679-0.004h0.034z" />
<glyph unicode="&#xe93b;" d="M616.8 406.68c14.513 20.474 23.2 45.968 23.2 73.491 0 70.692-57.308 128-128 128s-128-57.308-128-128c0-27.523 8.687-53.017 23.468-73.89l-0.268 0.399c-14.031-6.706-25.757-16.178-34.882-27.791l-0.158-0.209c-12.574-15.927-20.169-36.291-20.169-58.43 0-8.361 1.083-16.468 3.117-24.19l-0.148 0.66 48.72-192c11.058-42.139 48.805-72.721 93.695-72.721 0.135 0 0.27 0 0.406 0.001h28.459c0.123-0.001 0.269-0.001 0.416-0.001 44.846 0 82.564 30.522 93.513 71.926l0.152 0.675 48.72 192c1.886 7.062 2.969 15.169 2.969 23.53 0 22.139-7.595 42.503-20.322 58.63l0.153-0.2c-9.273 11.869-21.001 21.381-34.461 27.869l-0.579 0.251zM512 544c35.346 0 64-28.654 64-64s-28.654-64-64-64c-35.346 0-64 28.654-64 64v0c0 35.346 28.654 64 64 64v0zM607 312.36l-48.72-192c-3.825-14.135-16.535-24.362-31.635-24.362-0.129 0-0.257 0.001-0.385 0.002h-28.46c-0.109-0.001-0.237-0.002-0.365-0.002-15.099 0-27.81 10.228-31.582 24.133l-0.053 0.229-48.72 192c-0.63 2.329-0.993 5.003-0.993 7.762 0 7.268 2.514 13.949 6.721 19.221l-0.048-0.062c6.103 7.774 15.5 12.721 26.053 12.721 0.094 0 0.187 0 0.281-0.001h125.986c0.079 0.001 0.173 0.001 0.267 0.001 10.553 0 19.951-4.948 25.999-12.65l0.054-0.071c4.122-5.196 6.613-11.848 6.613-19.082 0-2.786-0.369-5.486-1.062-8.053l0.050 0.216zM288 448c0-0.043 0-0.095 0-0.147 0-19.845 2.568-39.090 7.391-57.421l-0.351 1.568c0.725-2.541 1.142-5.459 1.142-8.474 0-17.673-14.327-32-32-32-15.002 0-27.593 10.323-31.056 24.254l-0.046 0.22c-5.767 21.532-9.080 46.253-9.080 71.747 0 159.058 128.942 288 288 288s288-128.942 288-288c0-25.495-3.313-50.215-9.531-73.755l0.451 2.008c-3.678-13.904-16.14-23.989-30.959-24h-0.001c-0.001 0-0.002 0-0.003 0-2.841 0-5.597 0.365-8.223 1.050l0.226-0.050c-13.916 3.676-24.009 16.153-24.009 30.986 0 2.833 0.368 5.581 1.059 8.197l-0.050-0.223c4.471 16.721 7.040 35.919 7.040 55.716 0 123.712-100.288 224-224 224-123.598 0-223.815-100.104-224-223.658v-0.018zM928 448c0-0.098 0-0.215 0-0.332 0-143.961-73.224-270.819-184.46-345.362l-1.5-0.946c-4.88-3.167-10.847-5.051-17.255-5.051-17.673 0-32 14.327-32 32 0 10.873 5.423 20.479 13.711 26.262l0.104 0.069c95.416 63.976 157.38 171.404 157.38 293.304 0 194.404-157.596 352-352 352s-352-157.596-352-352c0-121.9 61.964-229.327 156.113-292.503l1.267-0.801c8.654-5.819 14.271-15.573 14.271-26.64 0-17.67-14.322-31.995-31.991-32v0c-0.014 0-0.031 0-0.048 0-6.574 0-12.681 2.003-17.743 5.431l0.111-0.071c-112.744 75.611-185.96 202.56-185.96 346.609 0 229.75 186.25 416 416 416 229.739 0 415.982-186.231 416-415.966v-0.002z" />
<glyph unicode="&#xe93c;" d="M718.56 320h-413.12l206.56 349.52z" />
<glyph unicode="&#xe93d;" d="M257.36 175.72l-37.8-64c-5.673-9.481-15.887-15.729-27.56-15.729-17.678 0-32.009 14.331-32.009 32.009 0 6.005 1.654 11.624 4.53 16.426l-0.081-0.146 37.84 64c5.59 9.82 15.986 16.335 27.903 16.335 17.673 0 32-14.327 32-32 0-6.258-1.796-12.096-4.901-17.027l0.078 0.133zM928 352h-191.2l-122.92 208c-5.59 9.82-15.986 16.335-27.903 16.335-17.673 0-32-14.327-32-32 0-6.258 1.796-12.096 4.901-17.027l-0.078 0.133 245.64-415.72c5.673-9.481 15.887-15.729 27.56-15.729 17.678 0 32.009 14.331 32.009 32.009 0 6.005-1.654 11.624-4.53 16.426l0.081-0.146-84.92 143.72h153.36c17.673 0 32 14.327 32 32s-14.327 32-32 32v0zM569.88 352h-208.36l274.040 463.72c2.796 4.656 4.449 10.275 4.449 16.28 0 17.678-14.331 32.009-32.009 32.009-11.673 0-21.887-6.249-27.479-15.584l-0.081-0.146-68.44-115.84-68.44 116c-5.673 9.481-15.887 15.729-27.56 15.729-17.678 0-32.009-14.331-32.009-32.009 0-6.005 1.654-11.624 4.53-16.426l-0.081 0.146 86.4-146.2-187.64-317.68h-191.2c-17.673 0-32-14.327-32-32s14.327-32 32-32v0h473.88c17.673 0 32 14.327 32 32s-14.327 32-32 32v0z" />
<glyph unicode="&#xe93e;" d="M896 736v-576c0-17.673-14.327-32-32-32v0h-704c-17.673 0-32 14.327-32 32v0 576c0 17.673 14.327 32 32 32v0h704c17.673 0 32-14.327 32-32v0z" />
<glyph unicode="&#xe93f;" d="M864 800h-704c-35.346 0-64-28.654-64-64v0-576c0-35.346 28.654-64 64-64v0h704c35.346 0 64 28.654 64 64v0 576c0 35.346-28.654 64-64 64v0zM864 160h-704v576h704v-576zM320 624c0-26.51-21.49-48-48-48s-48 21.49-48 48c0 26.51 21.49 48 48 48v0c26.51 0 48-21.49 48-48v0zM480 624c0-26.51-21.49-48-48-48s-48 21.49-48 48c0 26.51 21.49 48 48 48v0c26.51 0 48-21.49 48-48v0z" />
<glyph unicode="&#xe940;" d="M864 672v-544c0-17.673-14.327-32-32-32v0h-640c-17.673 0-32 14.327-32 32v0 544z" />
<glyph unicode="&#xe941;" d="M892.64 686.32l-64 128c-5.373 10.567-16.164 17.68-28.617 17.68-0.008 0-0.016 0-0.024 0h-575.999c-0.007 0-0.015 0-0.023 0-12.453 0-23.245-7.113-28.533-17.498l-0.084-0.182-64-128c-2.115-4.175-3.355-9.102-3.36-14.318v-544.002c0-35.346 28.654-64 64-64v0h640c35.346 0 64 28.654 64 64v0 544c-0.005 5.218-1.245 10.145-3.445 14.505l0.085-0.185zM243.76 768h536.48l32-64h-600.48zM832 128h-640v512h640v-512zM662.64 374.64c5.798-5.792 9.385-13.797 9.385-22.64s-3.587-16.848-9.385-22.64v0l-128-128c-5.792-5.798-13.797-9.385-22.64-9.385s-16.848 3.587-22.64 9.385v0l-128 128c-5.794 5.794-9.378 13.799-9.378 22.64 0 17.683 14.335 32.018 32.018 32.018 8.841 0 16.846-3.584 22.64-9.378l73.36-73.4v242.76c0 17.673 14.327 32 32 32s32-14.327 32-32v0-242.76l73.36 73.4c5.792 5.798 13.797 9.385 22.64 9.385s16.848-3.587 22.64-9.385v0z" />
<glyph unicode="&#xe942;" d="M864 576v-384c0-17.673-14.327-32-32-32v0h-640c-17.673 0-32 14.327-32 32v0 384z" />
<glyph unicode="&#xe943;" d="M896 768h-768c-35.346 0-64-28.654-64-64v0-96c0-35.346 28.654-64 64-64v0-352c0-35.346 28.654-64 64-64v0h640c35.346 0 64 28.654 64 64v0 352c35.346 0 64 28.654 64 64v0 96c0 35.346-28.654 64-64 64v0zM832 192h-640v352h640zM896 608h-768v96h768v-96zM384 416c0 17.673 14.327 32 32 32v0h192c17.673 0 32-14.327 32-32s-14.327-32-32-32v0h-192c-17.673 0-32 14.327-32 32v0z" />
<glyph unicode="&#xe944;" d="M864 768v-448h-146.76c-0.007 0-0.016 0-0.025 0-8.83 0-16.825-3.577-22.615-9.36v0l-77.24-77.28c-5.79-5.783-13.785-9.36-22.615-9.36-0.009 0-0.018 0-0.027 0h-165.479c-0.007 0-0.016 0-0.025 0-8.83 0-16.825 3.577-22.615 9.36v0l-77.24 77.28c-5.79 5.783-13.785 9.36-22.615 9.36-0.009 0-0.018 0-0.027 0h-146.719v448c0 17.673 14.327 32 32 32v0h640c17.673 0 32-14.327 32-32v0z" />
<glyph unicode="&#xe945;" d="M832 832h-640c-35.346 0-64-28.654-64-64v0-640c0-35.346 28.654-64 64-64v0h640c35.346 0 64 28.654 64 64v0 640c0 35.346-28.654 64-64 64v0zM832 768v-416h-114.8c-0.048 0-0.106 0-0.163 0-17.607 0-33.539-7.173-45.033-18.756l-77.244-77.244h-165.52l-77.24 77.28c-11.512 11.564-27.444 18.72-45.047 18.72-0.068 0-0.135 0-0.203 0h-114.749v416zM832 128h-640v160h114.76l77.24-77.28c11.512-11.564 27.444-18.72 45.047-18.72 0.068 0 0.135 0 0.203 0h165.509c0.060 0 0.131 0 0.203 0 17.607 0 33.539 7.173 45.033 18.756l77.244 77.244h114.76v-160zM361.36 457.36c-5.794 5.794-9.378 13.799-9.378 22.64 0 17.683 14.335 32.018 32.018 32.018 8.841 0 16.846-3.584 22.64-9.378l73.36-73.4v242.76c0 17.673 14.327 32 32 32s32-14.327 32-32v0-242.76l73.36 73.4c5.794 5.794 13.799 9.378 22.64 9.378 17.683 0 32.018-14.335 32.018-32.018 0-8.841-3.584-16.846-9.378-22.64l-128-128c-5.792-5.798-13.797-9.385-22.64-9.385s-16.848 3.587-22.64 9.385v0z" />
<glyph unicode="&#xe946;" d="M960 448c0-70.692-57.308-128-128-128v0-160c0-17.673-14.327-32-32-32v0h-576c-17.673 0-32 14.327-32 32v0 160c-70.692 0-128 57.308-128 128s57.308 128 128 128v0 96c0 70.692 57.308 128 128 128v0h384c70.692 0 128-57.308 128-128v0-96c70.692 0 128-57.308 128-128v0z" />
<glyph unicode="&#xe947;" d="M864 604.8v67.2c0 88.366-71.634 160-160 160v0h-384c-88.366 0-160-71.634-160-160v0-67.2c-73.633-15.344-128.16-79.704-128.16-156.8s54.527-141.456 127.12-156.618l1.040-0.182v-131.2c0-35.346 28.654-64 64-64v0h576c35.346 0 64 28.654 64 64v0 131.2c73.633 15.344 128.16 79.704 128.16 156.8s-54.527 141.456-127.12 156.618l-1.040 0.182zM320 768h384c53.019 0 96-42.981 96-96v0-67.2c-73.508-15.509-127.903-79.788-128-156.789v-0.011h-320c-0.097 77.012-54.492 141.291-126.953 156.615l-1.047 0.185v67.2c0 53.019 42.981 96 96 96v0zM833.56 352h-1.56c-17.673 0-32-14.327-32-32v0-160h-576v160c0 17.673-14.327 32-32 32v0h-1.56c-52.344 0.878-94.44 43.517-94.44 95.987 0 53.019 42.981 96 96 96 53.015 0 95.993-42.973 96-95.987v-160.001c0-17.673 14.327-32 32-32s32 14.327 32 32v0 96h320v-96c0-17.673 14.327-32 32-32s32 14.327 32 32v0 160c0.007 53.014 42.985 95.987 96 95.987 53.019 0 96-42.981 96-96 0-52.471-42.096-95.11-94.358-95.986l-0.082-0.001z" />
<glyph unicode="&#xe948;" d="M352 352h-256v256z" />
<glyph unicode="&#xe949;" d="M806.16 518.16c-75.279 75.268-179.27 121.822-294.134 121.822-111.585 0-212.909-43.933-287.618-115.447l0.152 0.145-105.92 105.96c-5.792 5.798-13.797 9.385-22.64 9.385-17.673 0-32-14.327-32-32 0-0.009 0-0.018 0-0.027v0.001-256c0-17.673 14.327-32 32-32v0h256c0.007 0 0.016 0 0.025 0 17.673 0 32 14.327 32 32 0 8.843-3.587 16.848-9.385 22.64l-104.76 104.72c62.954 59.749 148.246 96.497 242.12 96.497 194.354 0 351.918-157.514 352-351.849v-0.008c0-17.673 14.327-32 32-32s32 14.327 32 32v0c0.001 0.332 0.002 0.725 0.002 1.118 0 114.524-46.578 218.169-121.824 293.024l-0.018 0.018zM128 384v146.76l146.76-146.76z" />
<glyph unicode="&#xe94a;" d="M928 608v-256h-256z" />
<glyph unicode="&#xe94b;" d="M940.24 637.56c-3.623 1.545-7.838 2.443-12.262 2.443-8.832 0-16.828-3.578-22.618-9.363v0l-105.92-105.96c-74.554 71.353-175.867 115.277-287.44 115.277-229.735 0-415.976-186.225-416-415.955v-0.002c0-17.673 14.327-32 32-32s32 14.327 32 32v0c0.082 194.343 157.646 351.857 352 351.857 93.874 0 179.166-36.747 242.274-96.642l-0.154 0.145-104.76-104.72c-5.798-5.792-9.385-13.797-9.385-22.64 0-17.673 14.327-32 32-32 0.009 0 0.018 0 0.027 0h255.999c17.673 0 32 14.327 32 32v0 256c-0.003 13.254-8.064 24.626-19.55 29.481l-0.21 0.079zM896 384h-146.76l146.76 146.76z" />
<glyph unicode="&#xe94c;" d="M512 736v-384l-192 192z" />
<glyph unicode="&#xe94d;" d="M342.64 374.64c5.794-5.794 9.378-13.799 9.378-22.64 0-17.683-14.335-32.018-32.018-32.018-8.841 0-16.846 3.584-22.64 9.378l-192 192c-5.798 5.792-9.385 13.797-9.385 22.64s3.587 16.848 9.385 22.64v0l192 192c5.794 5.794 13.799 9.378 22.64 9.378 17.683 0 32.018-14.335 32.018-32.018 0-8.841-3.584-16.846-9.378-22.64l-169.4-169.36zM928 160c0-17.673-14.327-32-32-32s-32 14.327-32 32v0c-0.227 183.046-139.963 333.385-318.579 350.411l-1.421 0.109v-158.52c0-0.007 0-0.016 0-0.025 0-17.673-14.327-32-32-32-8.843 0-16.848 3.587-22.64 9.385v0l-192 192c-5.798 5.792-9.385 13.797-9.385 22.64s3.587 16.848 9.385 22.64v0l192 192c5.792 5.798 13.797 9.385 22.64 9.385 17.673 0 32-14.327 32-32 0-0.009 0-0.018 0-0.027v0.001-161.2c215.441-17.419 383.718-196.413 384-414.772v-0.028zM480 658.76l-114.76-114.76 114.76-114.76z" />
<glyph unicode="&#xe94e;" d="M704 544l-192-192v384z" />
<glyph unicode="&#xe94f;" d="M918.64 521.36l-192-192c-5.794-5.794-13.799-9.378-22.64-9.378-17.683 0-32.018 14.335-32.018 32.018 0 8.841 3.584 16.846 9.378 22.64l169.4 169.36-169.4 169.36c-5.794 5.794-9.378 13.799-9.378 22.64 0 17.683 14.335 32.018 32.018 32.018 8.841 0 16.846-3.584 22.64-9.378v0l192-192c5.798-5.792 9.385-13.797 9.385-22.64s-3.587-16.848-9.385-22.64v0zM726.64 521.36l-192-192c-5.792-5.798-13.797-9.385-22.64-9.385-17.673 0-32 14.327-32 32 0 0.009 0 0.018 0 0.027v-0.001 158.52c-180.037-17.135-319.773-167.474-320-350.497v-0.023c0-17.673-14.327-32-32-32s-32 14.327-32 32v0c0.283 218.387 168.56 397.382 382.522 414.704l1.478 0.096v161.2c0 0.007 0 0.016 0 0.025 0 17.673 14.327 32 32 32 8.843 0 16.848-3.587 22.64-9.385v0l192-192c5.798-5.792 9.385-13.797 9.385-22.64s-3.587-16.848-9.385-22.64v0zM658.64 544l-114.64 114.76v-229.52z" />
<glyph unicode="&#xe950;" d="M320 544v-384l-192 192z" />
<glyph unicode="&#xe951;" d="M896 768c-17.673 0-32-14.327-32-32v0c-0.228-194.313-157.687-351.772-351.978-352h-160.022v160c0 0.007 0 0.016 0 0.025 0 17.673-14.327 32-32 32-8.843 0-16.848-3.587-22.64-9.385v0l-192-192c-5.798-5.792-9.385-13.797-9.385-22.64s3.587-16.848 9.385-22.64v0l192-192c5.792-5.798 13.797-9.385 22.64-9.385 17.673 0 32 14.327 32 32 0 0.009 0 0.018 0 0.027v-0.001 160h160c229.65 0.25 415.75 186.35 416 415.976v0.024c0 17.673-14.327 32-32 32v0zM288 237.24l-114.76 114.76 114.76 114.76z" />
<glyph unicode="&#xe952;" d="M896 352l-192-192v384z" />
<glyph unicode="&#xe953;" d="M918.64 374.64l-192 192c-5.792 5.798-13.797 9.385-22.64 9.385-17.673 0-32-14.327-32-32 0-0.009 0-0.018 0-0.027v0.001-160h-160c-194.313 0.228-351.772 157.687-352 351.978v0.022c0 17.673-14.327 32-32 32s-32-14.327-32-32v0c0.25-229.65 186.35-415.75 415.976-416h160.024v-160c0-0.007 0-0.016 0-0.025 0-17.673 14.327-32 32-32 8.843 0 16.848 3.587 22.64 9.385v0l192 192c5.798 5.792 9.385 13.797 9.385 22.64s-3.587 16.848-9.385 22.64v0zM736 237.24v229.52l114.76-114.76z" />
<glyph unicode="&#xe954;" d="M608 256l-192-192-192 192z" />
<glyph unicode="&#xe955;" d="M800 864c-229.65-0.25-415.75-186.35-416-415.976v-160.024h-160c-0.007 0-0.016 0-0.025 0-17.673 0-32-14.327-32-32 0-8.843 3.587-16.848 9.385-22.64v0l192-192c5.792-5.798 13.797-9.385 22.64-9.385s16.848 3.587 22.64 9.385v0l192 192c5.798 5.792 9.385 13.797 9.385 22.64 0 17.673-14.327 32-32 32-0.009 0-0.018 0-0.027 0h-159.999v160c0.228 194.313 157.687 351.772 351.978 352h0.022c17.673 0 32 14.327 32 32s-14.327 32-32 32v0zM416 109.24l-114.76 114.76h229.52z" />
<glyph unicode="&#xe956;" d="M608 640h-384l192 192z" />
<glyph unicode="&#xe957;" d="M800 96c-194.313 0.228-351.772 157.687-352 351.978v160.022h160c0.007 0 0.016 0 0.025 0 17.673 0 32 14.327 32 32 0 8.843-3.587 16.848-9.385 22.64v0l-192 192c-5.792 5.798-13.797 9.385-22.64 9.385s-16.848-3.587-22.64-9.385v0l-192-192c-5.798-5.792-9.385-13.797-9.385-22.64 0-17.673 14.327-32 32-32 0.009 0 0.018 0 0.027 0h159.999v-160c0.25-229.65 186.35-415.75 415.976-416h0.024c17.673 0 32 14.327 32 32s-14.327 32-32 32v0zM416 786.76l114.76-114.76h-229.52z" />
<glyph unicode="&#xe958;" d="M800 256l-192-192-192 192z" />
<glyph unicode="&#xe959;" d="M829.56 268.24c-4.934 11.696-16.306 19.757-29.56 19.76h-160v160c-0.25 229.65-186.35 415.75-415.976 416h-0.024c-17.673 0-32-14.327-32-32s14.327-32 32-32v0c194.313-0.228 351.772-157.687 352-351.978v-160.022h-160c-0.007 0-0.016 0-0.025 0-17.673 0-32-14.327-32-32 0-8.843 3.587-16.848 9.385-22.64v0l192-192c5.792-5.798 13.797-9.385 22.64-9.385s16.848 3.587 22.64 9.385v0l192 192c5.785 5.79 9.363 13.786 9.363 22.618 0 4.425-0.898 8.639-2.522 12.472l0.079-0.21zM608 109.24l-114.76 114.76h229.52z" />
<glyph unicode="&#xe95a;" d="M800 640h-384l192 192z" />
<glyph unicode="&#xe95b;" d="M822.64 662.64l-192 192c-5.792 5.798-13.797 9.385-22.64 9.385s-16.848-3.587-22.64-9.385v0l-192-192c-5.798-5.792-9.385-13.797-9.385-22.64 0-17.673 14.327-32 32-32 0.009 0 0.018 0 0.027 0h159.999v-160c-0.228-194.313-157.687-351.772-351.978-352h-0.022c-17.673 0-32-14.327-32-32s14.327-32 32-32v0c229.65 0.25 415.75 186.35 416 415.976v160.024h160c0.007 0 0.016 0 0.025 0 17.673 0 32 14.327 32 32 0 8.843-3.587 16.848-9.385 22.64v0zM493.24 672l114.76 114.76 114.76-114.76z" />
<glyph unicode="&#xe95c;" d="M320 736v-384l-192 192z" />
<glyph unicode="&#xe95d;" d="M512 576h-160v160c0 0.007 0 0.016 0 0.025 0 17.673-14.327 32-32 32-8.843 0-16.848-3.587-22.64-9.385v0l-192-192c-5.798-5.792-9.385-13.797-9.385-22.64s3.587-16.848 9.385-22.64v0l192-192c5.792-5.798 13.797-9.385 22.64-9.385 17.673 0 32 14.327 32 32 0 0.009 0 0.018 0 0.027v-0.001 160h160c194.313-0.228 351.772-157.687 352-351.978v-0.022c0-17.673 14.327-32 32-32s32 14.327 32 32v0c-0.25 229.65-186.35 415.75-415.976 416h-0.024zM288 429.24l-114.76 114.76 114.76 114.76z" />
<glyph unicode="&#xe95e;" d="M896 544l-192-192v384z" />
<glyph unicode="&#xe95f;" d="M918.64 566.64l-192 192c-5.792 5.798-13.797 9.385-22.64 9.385-17.673 0-32-14.327-32-32 0-0.009 0-0.018 0-0.027v0.001-160h-160c-229.65-0.25-415.75-186.35-416-415.976v-0.024c0-17.673 14.327-32 32-32s32 14.327 32 32v0c0.228 194.313 157.687 351.772 351.978 352h160.022v-160c0-0.007 0-0.016 0-0.025 0-17.673 14.327-32 32-32 8.843 0 16.848 3.587 22.64 9.385v0l192 192c5.798 5.792 9.385 13.797 9.385 22.64s-3.587 16.848-9.385 22.64v0zM736 429.24v229.52l114.76-114.76z" />
<glyph unicode="&#xe960;" d="M896 448c0-212.077-171.923-384-384-384s-384 171.923-384 384c0 212.077 171.923 384 384 384v0c212.077 0 384-171.923 384-384v0z" />
<glyph unicode="&#xe961;" d="M512 864c-229.75 0-416-186.25-416-416s186.25-416 416-416c229.75 0 416 186.25 416 416v0c-0.25 229.65-186.35 415.75-415.976 416h-0.024zM512 96c-194.404 0-352 157.596-352 352s157.596 352 352 352c194.404 0 352-157.596 352-352v0c-0.228-194.313-157.687-351.772-351.978-352h-0.022zM662.64 438.64c5.798-5.792 9.385-13.797 9.385-22.64s-3.587-16.848-9.385-22.64v0l-128-128c-5.792-5.798-13.797-9.385-22.64-9.385s-16.848 3.587-22.64 9.385v0l-128 128c-5.794 5.794-9.378 13.799-9.378 22.64 0 17.683 14.335 32.018 32.018 32.018 8.841 0 16.846-3.584 22.64-9.378l73.36-73.4v242.76c0 17.673 14.327 32 32 32s32-14.327 32-32v0-242.76l73.36 73.4c5.792 5.798 13.797 9.385 22.64 9.385s16.848-3.587 22.64-9.385v0z" />
<glyph unicode="&#xe962;" d="M896 448c0-212.077-171.923-384-384-384s-384 171.923-384 384c0 212.077 171.923 384 384 384v0c212.077 0 384-171.923 384-384v0z" />
<glyph unicode="&#xe963;" d="M512 864c-229.75 0-416-186.25-416-416s186.25-416 416-416c229.75 0 416 186.25 416 416v0c-0.25 229.65-186.35 415.75-415.976 416h-0.024zM512 96c-194.404 0-352 157.596-352 352s157.596 352 352 352c194.404 0 352-157.596 352-352v0c-0.228-194.313-157.687-351.772-351.978-352h-0.022zM662.64 598.64c5.798-5.792 9.385-13.797 9.385-22.64s-3.587-16.848-9.385-22.64v0l-201.4-201.36h114.76c17.673 0 32-14.327 32-32s-14.327-32-32-32v0h-192c-17.673 0-32 14.327-32 32v0 192c0 17.673 14.327 32 32 32s32-14.327 32-32v0-114.76l201.36 201.4c5.792 5.798 13.797 9.385 22.64 9.385s16.848-3.587 22.64-9.385v0z" />
<glyph unicode="&#xe964;" d="M896 448c0-212.077-171.923-384-384-384s-384 171.923-384 384c0 212.077 171.923 384 384 384v0c212.077 0 384-171.923 384-384v0z" />
<glyph unicode="&#xe965;" d="M512 864c-229.75 0-416-186.25-416-416s186.25-416 416-416c229.75 0 416 186.25 416 416v0c-0.25 229.65-186.35 415.75-415.976 416h-0.024zM512 96c-194.404 0-352 157.596-352 352s157.596 352 352 352c194.404 0 352-157.596 352-352v0c-0.228-194.313-157.687-351.772-351.978-352h-0.022zM672 512v-192c0-17.673-14.327-32-32-32v0h-192c-17.673 0-32 14.327-32 32s14.327 32 32 32v0h114.76l-201.4 201.36c-5.794 5.794-9.378 13.799-9.378 22.64 0 17.683 14.335 32.018 32.018 32.018 8.841 0 16.846-3.584 22.64-9.378l201.36-201.4v114.76c0 17.673 14.327 32 32 32s32-14.327 32-32v0z" />
<glyph unicode="&#xe966;" d="M896 448c0-212.077-171.923-384-384-384s-384 171.923-384 384c0 212.077 171.923 384 384 384v0c212.077 0 384-171.923 384-384v0z" />
<glyph unicode="&#xe967;" d="M512 864c-229.75 0-416-186.25-416-416s186.25-416 416-416c229.75 0 416 186.25 416 416v0c-0.25 229.65-186.35 415.75-415.976 416h-0.024zM512 96c-194.404 0-352 157.596-352 352s157.596 352 352 352c194.404 0 352-157.596 352-352v0c-0.228-194.313-157.687-351.772-351.978-352h-0.022zM704 448c0-17.673-14.327-32-32-32v0h-242.76l73.4-73.36c5.794-5.794 9.378-13.799 9.378-22.64 0-17.683-14.335-32.018-32.018-32.018-8.841 0-16.846 3.584-22.64 9.378l-128 128c-5.798 5.792-9.385 13.797-9.385 22.64s3.587 16.848 9.385 22.64v0l128 128c5.794 5.794 13.799 9.378 22.64 9.378 17.683 0 32.018-14.335 32.018-32.018 0-8.841-3.584-16.846-9.378-22.64l-73.4-73.36h242.76c17.673 0 32-14.327 32-32v0z" />
<glyph unicode="&#xe968;" d="M896 448c0-212.077-171.923-384-384-384s-384 171.923-384 384c0 212.077 171.923 384 384 384v0c212.077 0 384-171.923 384-384v0z" />
<glyph unicode="&#xe969;" d="M512 864c-229.75 0-416-186.25-416-416s186.25-416 416-416c229.75 0 416 186.25 416 416v0c-0.25 229.65-186.35 415.75-415.976 416h-0.024zM512 96c-194.404 0-352 157.596-352 352s157.596 352 352 352c194.404 0 352-157.596 352-352v0c-0.228-194.313-157.687-351.772-351.978-352h-0.022zM694.64 470.64c5.798-5.792 9.385-13.797 9.385-22.64s-3.587-16.848-9.385-22.64v0l-128-128c-5.794-5.794-13.799-9.378-22.64-9.378-17.683 0-32.018 14.335-32.018 32.018 0 8.841 3.584 16.846 9.378 22.64l73.4 73.36h-242.76c-17.673 0-32 14.327-32 32s14.327 32 32 32v0h242.76l-73.4 73.36c-5.794 5.794-9.378 13.799-9.378 22.64 0 17.683 14.335 32.018 32.018 32.018 8.841 0 16.846-3.584 22.64-9.378v0z" />
<glyph unicode="&#xe96a;" d="M896 448c0-212.077-171.923-384-384-384s-384 171.923-384 384c0 212.077 171.923 384 384 384v0c212.077 0 384-171.923 384-384v0z" />
<glyph unicode="&#xe96b;" d="M512 864c-229.75 0-416-186.25-416-416s186.25-416 416-416c229.75 0 416 186.25 416 416v0c-0.25 229.65-186.35 415.75-415.976 416h-0.024zM512 96c-194.404 0-352 157.596-352 352s157.596 352 352 352c194.404 0 352-157.596 352-352v0c-0.228-194.313-157.687-351.772-351.978-352h-0.022zM662.64 502.64c5.794-5.794 9.378-13.799 9.378-22.64 0-17.683-14.335-32.018-32.018-32.018-8.841 0-16.846 3.584-22.64 9.378l-73.36 73.4v-242.76c0-17.673-14.327-32-32-32s-32 14.327-32 32v0 242.76l-73.36-73.4c-5.794-5.794-13.799-9.378-22.64-9.378-17.683 0-32.018 14.335-32.018 32.018 0 8.841 3.584 16.846 9.378 22.64l128 128c5.792 5.798 13.797 9.385 22.64 9.385s16.848-3.587 22.64-9.385v0z" />
<glyph unicode="&#xe96c;" d="M896 448c0-212.077-171.923-384-384-384s-384 171.923-384 384c0 212.077 171.923 384 384 384v0c212.077 0 384-171.923 384-384v0z" />
<glyph unicode="&#xe96d;" d="M512 864c-229.75 0-416-186.25-416-416s186.25-416 416-416c229.75 0 416 186.25 416 416v0c-0.25 229.65-186.35 415.75-415.976 416h-0.024zM512 96c-194.404 0-352 157.596-352 352s157.596 352 352 352c194.404 0 352-157.596 352-352v0c-0.228-194.313-157.687-351.772-351.978-352h-0.022zM662.64 342.64c5.794-5.794 9.378-13.799 9.378-22.64 0-17.683-14.335-32.018-32.018-32.018-8.841 0-16.846 3.584-22.64 9.378l-201.36 201.4v-114.76c0-17.673-14.327-32-32-32s-32 14.327-32 32v0 192c0 17.673 14.327 32 32 32v0h192c17.673 0 32-14.327 32-32s-14.327-32-32-32v0h-114.76z" />
<glyph unicode="&#xe96e;" d="M896 448c0-212.077-171.923-384-384-384s-384 171.923-384 384c0 212.077 171.923 384 384 384v0c212.077 0 384-171.923 384-384v0z" />
<glyph unicode="&#xe96f;" d="M512 864c-229.75 0-416-186.25-416-416s186.25-416 416-416c229.75 0 416 186.25 416 416v0c-0.25 229.65-186.35 415.75-415.976 416h-0.024zM512 96c-194.404 0-352 157.596-352 352s157.596 352 352 352c194.404 0 352-157.596 352-352v0c-0.228-194.313-157.687-351.772-351.978-352h-0.022zM672 576v-192c0-17.673-14.327-32-32-32s-32 14.327-32 32v0 114.76l-201.36-201.4c-5.794-5.794-13.799-9.378-22.64-9.378-17.683 0-32.018 14.335-32.018 32.018 0 8.841 3.584 16.846 9.378 22.64l201.4 201.36h-114.76c-17.673 0-32 14.327-32 32s14.327 32 32 32v0h192c17.673 0 32-14.327 32-32v0z" />
<glyph unicode="&#xe970;" d="M928 736v-192h-192z" />
<glyph unicode="&#xe971;" d="M940.24 765.72c-3.623 1.545-7.838 2.443-12.262 2.443-8.832 0-16.828-3.578-22.618-9.363v0l-78.64-78.8-43.72 40c-69.439 69.188-165.235 111.964-271.021 111.964-212.077 0-384-171.923-384-384 0-210.228 168.938-380.999 378.462-383.961l0.279-0.003h5.28c0.243-0.001 0.531-0.001 0.818-0.001 101.865 0 194.412 39.897 262.867 104.916l-0.165-0.155c6.174 5.849 10.016 14.106 10.016 23.26 0 17.682-14.334 32.016-32.016 32.016-8.528 0-16.277-3.334-22.015-8.77l0.015 0.014c-57.161-53.99-134.47-87.178-219.531-87.178-176.731 0-320 143.269-320 320s143.269 320 320 320c88.354 0 168.345-35.808 226.251-93.703l-0.001 0.001 1-0.96 42.2-38.6-68-68c-5.919-5.811-9.588-13.897-9.588-22.84 0-17.673 14.327-32 32-32 0.052 0 0.104 0 0.156 0h191.992c17.673 0 32 14.327 32 32v0 192c0 0.046 0 0.099 0 0.153 0 13.257-8.062 24.631-19.55 29.488l-0.21 0.079zM896 576h-82.76l82.76 82.88z" />
<glyph unicode="&#xe972;" d="M288 544h-192v192z" />
<glyph unicode="&#xe973;" d="M783.52 719.68c-69.515 69.349-165.46 112.23-271.421 112.23-105.801 0-201.617-42.753-271.114-111.925l0.015 0.015-43.76-40-78.6 78.8c-5.792 5.799-13.797 9.386-22.641 9.386-17.673 0-32-14.327-32-32 0-0.065 0-0.131 0.001-0.196v0.010-192c0-17.673 14.327-32 32-32v0h192c0.007 0 0.016 0 0.025 0 17.673 0 32 14.327 32 32 0 8.843-3.587 16.848-9.385 22.64v0l-68 68 42.16 38.6c0.374 0.32 0.713 0.647 1.033 0.992l0.007 0.008c57.901 57.86 137.868 93.644 226.192 93.644 176.731 0 320-143.269 320-320s-143.269-320-320-320c-85.091 0-162.424 33.211-219.745 87.379l0.153-0.143c-5.723 5.422-13.472 8.756-22 8.756-17.682 0-32.016-14.334-32.016-32.016 0-9.154 3.842-17.411 10.002-23.246l0.015-0.014c68.235-64.767 160.685-104.602 262.438-104.602 0.394 0 0.789 0.001 1.183 0.002h5.219c209.871 2.879 378.896 173.683 378.896 383.966 0 106.131-43.055 202.205-112.652 271.71l-0.004 0.004zM128 576v82.88l82.76-82.88z" />
<glyph unicode="&#xe974;" d="M800 384l-288-288-288 288z" />
<glyph unicode="&#xe975;" d="M829.56 396.24c-4.934 11.696-16.306 19.757-29.56 19.76h-256v384c0 17.673-14.327 32-32 32s-32-14.327-32-32v0-384h-256c-0.007 0-0.016 0-0.025 0-17.673 0-32-14.327-32-32 0-8.843 3.587-16.848 9.385-22.64v0l288-288c5.792-5.798 13.797-9.385 22.64-9.385s16.848 3.587 22.64 9.385v0l288 288c5.785 5.79 9.363 13.786 9.363 22.618 0 4.425-0.898 8.639-2.522 12.472l0.079-0.21zM512 141.24l-210.76 210.76h421.52z" />
<glyph unicode="&#xe976;" d="M672 192h-416v416z" />
<glyph unicode="&#xe977;" d="M790.64 726.64c-5.792 5.798-13.797 9.385-22.64 9.385s-16.848-3.587-22.64-9.385v0l-281.36-281.4-185.36 185.4c-5.792 5.798-13.797 9.385-22.64 9.385-17.673 0-32-14.327-32-32 0-0.009 0-0.018 0-0.027v0.001-416c0-17.673 14.327-32 32-32v0h416c0.007 0 0.016 0 0.025 0 17.673 0 32 14.327 32 32 0 8.843-3.587 16.848-9.385 22.64v0l-185.4 185.36 281.4 281.36c5.798 5.792 9.385 13.797 9.385 22.64s-3.587 16.848-9.385 22.64v0zM288 224v306.76l306.76-306.76z" />
<glyph unicode="&#xe978;" d="M768 608v-416h-416z" />
<glyph unicode="&#xe979;" d="M780.24 637.56c-3.623 1.545-7.838 2.443-12.262 2.443-8.832 0-16.828-3.578-22.618-9.363v0l-185.36-185.4-281.36 281.4c-5.794 5.794-13.799 9.378-22.64 9.378-17.683 0-32.018-14.335-32.018-32.018 0-8.841 3.584-16.846 9.378-22.64l281.4-281.36-185.4-185.36c-5.798-5.792-9.385-13.797-9.385-22.64 0-17.673 14.327-32 32-32 0.009 0 0.018 0 0.027 0h415.999c17.673 0 32 14.327 32 32v0 416c-0.003 13.254-8.064 24.626-19.55 29.481l-0.21 0.079zM736 224h-306.76l306.76 306.76z" />
<glyph unicode="&#xe97a;" d="M384 448v-384l-192 192z" />
<glyph unicode="&#xe97b;" d="M768 864c-17.673 0-32-14.327-32-32v0-544h-320v160c0 0.007 0 0.016 0 0.025 0 17.673-14.327 32-32 32-8.843 0-16.848-3.587-22.64-9.385v0l-192-192c-5.798-5.792-9.385-13.797-9.385-22.64s3.587-16.848 9.385-22.64v0l192-192c5.792-5.798 13.797-9.385 22.64-9.385 17.673 0 32 14.327 32 32 0 0.009 0 0.018 0 0.027v-0.001 160h352c17.673 0 32 14.327 32 32v0 576c0 17.673-14.327 32-32 32v0zM352 141.24l-114.76 114.76 114.76 114.76z" />
<glyph unicode="&#xe97c;" d="M832 256l-192-192v384z" />
<glyph unicode="&#xe97d;" d="M854.64 278.64l-192 192c-5.792 5.798-13.797 9.385-22.64 9.385-17.673 0-32-14.327-32-32 0-0.009 0-0.018 0-0.027v0.001-160h-320v544c0 17.673-14.327 32-32 32s-32-14.327-32-32v0-576c0-17.673 14.327-32 32-32v0h352v-160c0-0.007 0-0.016 0-0.025 0-17.673 14.327-32 32-32 8.843 0 16.848 3.587 22.64 9.385v0l192 192c5.798 5.792 9.385 13.797 9.385 22.64s-3.587 16.848-9.385 22.64v0zM672 141.24v229.52l114.76-114.76z" />
<glyph unicode="&#xe97e;" d="M512 320l-192-192-192 192z" />
<glyph unicode="&#xe97f;" d="M896 736h-576c-17.673 0-32-14.327-32-32v0-352h-160c-0.007 0-0.016 0-0.025 0-17.673 0-32-14.327-32-32 0-8.843 3.587-16.848 9.385-22.64v0l192-192c5.792-5.798 13.797-9.385 22.64-9.385s16.848 3.587 22.64 9.385v0l192 192c5.798 5.792 9.385 13.797 9.385 22.64 0 17.673-14.327 32-32 32-0.009 0-0.018 0-0.027 0h-159.999v320h544c17.673 0 32 14.327 32 32s-14.327 32-32 32v0zM320 173.24l-114.76 114.76h229.52z" />
<glyph unicode="&#xe980;" d="M384 640l-288-288v288z" />
<glyph unicode="&#xe981;" d="M950.64 598.64c-5.792 5.798-13.797 9.385-22.64 9.385s-16.848-3.587-22.64-9.385v0l-361.36-361.4-258.76 258.76 121.4 121.36c5.798 5.792 9.385 13.797 9.385 22.64 0 17.673-14.327 32-32 32-0.009 0-0.018 0-0.027 0h-287.999c-17.673 0-32-14.327-32-32v0-288c0-0.007 0-0.016 0-0.025 0-17.673 14.327-32 32-32 8.843 0 16.848 3.587 22.64 9.385l121.36 121.4 281.36-281.4c5.792-5.798 13.797-9.385 22.64-9.385s16.848 3.587 22.64 9.385v0l384 384c5.798 5.792 9.385 13.797 9.385 22.64s-3.587 16.848-9.385 22.64v0zM128 429.24v178.76h178.76z" />
<glyph unicode="&#xe982;" d="M512 576h-384l192 192z" />
<glyph unicode="&#xe983;" d="M896 224h-544v320h160c0.007 0 0.016 0 0.025 0 17.673 0 32 14.327 32 32 0 8.843-3.587 16.848-9.385 22.64v0l-192 192c-5.792 5.798-13.797 9.385-22.64 9.385s-16.848-3.587-22.64-9.385v0l-192-192c-5.798-5.792-9.385-13.797-9.385-22.64 0-17.673 14.327-32 32-32 0.009 0 0.018 0 0.027 0h159.999v-352c0-17.673 14.327-32 32-32v0h576c17.673 0 32 14.327 32 32s-14.327 32-32 32v0zM320 722.76l114.76-114.76h-229.52z" />
<glyph unicode="&#xe984;" d="M896 320l-192-192-192 192z" />
<glyph unicode="&#xe985;" d="M925.56 332.24c-4.934 11.696-16.306 19.757-29.56 19.76h-160v352c0 17.673-14.327 32-32 32v0h-576c-17.673 0-32-14.327-32-32s14.327-32 32-32v0h544v-320h-160c-0.007 0-0.016 0-0.025 0-17.673 0-32-14.327-32-32 0-8.843 3.587-16.848 9.385-22.64v0l192-192c5.792-5.798 13.797-9.385 22.64-9.385s16.848 3.587 22.64 9.385v0l192 192c5.785 5.79 9.363 13.786 9.363 22.618 0 4.425-0.898 8.639-2.522 12.472l0.079-0.21zM704 173.24l-114.76 114.76h229.52z" />
<glyph unicode="&#xe986;" d="M928 640v-288l-288 288z" />
<glyph unicode="&#xe987;" d="M928 672h-288c-0.007 0-0.016 0-0.025 0-17.673 0-32-14.327-32-32 0-8.843 3.587-16.848 9.385-22.64l121.4-121.36-258.76-258.76-361.36 361.4c-5.794 5.794-13.799 9.378-22.64 9.378-17.683 0-32.018-14.335-32.018-32.018 0-8.841 3.584-16.846 9.378-22.64v0l384-384c5.792-5.798 13.797-9.385 22.64-9.385s16.848 3.587 22.64 9.385v0l281.36 281.4 121.36-121.4c5.792-5.798 13.797-9.385 22.64-9.385 17.673 0 32 14.327 32 32 0 0.009 0 0.018 0 0.027v-0.001 288c0 17.673-14.327 32-32 32v0zM896 429.24l-178.76 178.76h178.76z" />
<glyph unicode="&#xe988;" d="M896 576h-384l192 192z" />
<glyph unicode="&#xe989;" d="M918.64 598.64l-192 192c-5.792 5.798-13.797 9.385-22.64 9.385s-16.848-3.587-22.64-9.385v0l-192-192c-5.798-5.792-9.385-13.797-9.385-22.64 0-17.673 14.327-32 32-32 0.009 0 0.018 0 0.027 0h159.999v-320h-544c-17.673 0-32-14.327-32-32s14.327-32 32-32v0h576c17.673 0 32 14.327 32 32v0 352h160c0.007 0 0.016 0 0.025 0 17.673 0 32 14.327 32 32 0 8.843-3.587 16.848-9.385 22.64v0zM589.24 608l114.76 114.76 114.76-114.76z" />
<glyph unicode="&#xe98a;" d="M384 832v-384l-192 192z" />
<glyph unicode="&#xe98b;" d="M768 672h-352v160c0 0.007 0 0.016 0 0.025 0 17.673-14.327 32-32 32-8.843 0-16.848-3.587-22.64-9.385v0l-192-192c-5.798-5.792-9.385-13.797-9.385-22.64s3.587-16.848 9.385-22.64v0l192-192c5.792-5.798 13.797-9.385 22.64-9.385 17.673 0 32 14.327 32 32 0 0.009 0 0.018 0 0.027v-0.001 160h320v-544c0-17.673 14.327-32 32-32s32 14.327 32 32v0 576c0 17.673-14.327 32-32 32v0zM352 525.24l-114.76 114.76 114.76 114.76z" />
<glyph unicode="&#xe98c;" d="M832 640l-192-192v384z" />
<glyph unicode="&#xe98d;" d="M854.64 662.64l-192 192c-5.792 5.798-13.797 9.385-22.64 9.385-17.673 0-32-14.327-32-32 0-0.009 0-0.018 0-0.027v0.001-160h-352c-17.673 0-32-14.327-32-32v0-576c0-17.673 14.327-32 32-32s32 14.327 32 32v0 544h320v-160c0-0.007 0-0.016 0-0.025 0-17.673 14.327-32 32-32 8.843 0 16.848 3.587 22.64 9.385v0l192 192c5.798 5.792 9.385 13.797 9.385 22.64s-3.587 16.848-9.385 22.64v0zM672 525.24v229.52l114.76-114.76z" />
<glyph unicode="&#xe98e;" d="M896 416l-384-384-384 384h192v352c0 17.673 14.327 32 32 32v0h320c17.673 0 32-14.327 32-32v0-352z" />
<glyph unicode="&#xe98f;" d="M925.56 428.24c-4.934 11.696-16.306 19.757-29.56 19.76h-160v320c0 35.346-28.654 64-64 64v0h-320c-35.346 0-64-28.654-64-64v0-320h-160c-0.007 0-0.016 0-0.025 0-17.673 0-32-14.327-32-32 0-8.843 3.587-16.848 9.385-22.64v0l384-384c5.792-5.798 13.797-9.385 22.64-9.385s16.848 3.587 22.64 9.385v0l384 384c5.785 5.79 9.363 13.786 9.363 22.618 0 4.425-0.898 8.639-2.522 12.472l0.079-0.21zM512 77.24l-306.76 306.76h114.76c17.673 0 32 14.327 32 32v0 352h320v-352c0-17.673 14.327-32 32-32v0h114.76z" />
<glyph unicode="&#xe990;" d="M864 608v-320c0-17.673-14.327-32-32-32v0h-352v-192l-384 384 384 384v-192h352c17.673 0 32-14.327 32-32v0z" />
<glyph unicode="&#xe991;" d="M832 672h-320v160c0 0.007 0 0.016 0 0.025 0 17.673-14.327 32-32 32-8.843 0-16.848-3.587-22.64-9.385v0l-384-384c-5.798-5.792-9.385-13.797-9.385-22.64s3.587-16.848 9.385-22.64v0l384-384c5.792-5.798 13.797-9.385 22.64-9.385 17.673 0 32 14.327 32 32 0 0.009 0 0.018 0 0.027v-0.001 160h320c35.346 0 64 28.654 64 64v0 320c0 35.346-28.654 64-64 64v0zM832 288h-352c-17.673 0-32-14.327-32-32v0-114.76l-306.76 306.76 306.76 306.76v-114.76c0-17.673 14.327-32 32-32v0h352z" />
<glyph unicode="&#xe992;" d="M896 416l-384-384-384 384h192v256h384v-256z" />
<glyph unicode="&#xe993;" d="M925.56 428.24c-4.934 11.696-16.306 19.757-29.56 19.76h-160v224c0 17.673-14.327 32-32 32v0h-384c-17.673 0-32-14.327-32-32v0-224h-160c-0.007 0-0.016 0-0.025 0-17.673 0-32-14.327-32-32 0-8.843 3.587-16.848 9.385-22.64v0l384-384c5.792-5.798 13.797-9.385 22.64-9.385s16.848 3.587 22.64 9.385v0l384 384c5.785 5.79 9.363 13.786 9.363 22.618 0 4.425-0.898 8.639-2.522 12.472l0.079-0.21zM512 77.24l-306.76 306.76h114.76c17.673 0 32 14.327 32 32v0 224h320v-224c0-17.673 14.327-32 32-32v0h114.76zM288 800c0 17.673 14.327 32 32 32v0h384c17.673 0 32-14.327 32-32s-14.327-32-32-32v0h-384c-17.673 0-32 14.327-32 32v0z" />
<glyph unicode="&#xe994;" d="M736 640v-384h-256v-192l-384 384 384 384v-192z" />
<glyph unicode="&#xe995;" d="M736 672h-224v160c0 0.007 0 0.016 0 0.025 0 17.673-14.327 32-32 32-8.843 0-16.848-3.587-22.64-9.385v0l-384-384c-5.798-5.792-9.385-13.797-9.385-22.64s3.587-16.848 9.385-22.64v0l384-384c5.792-5.798 13.797-9.385 22.64-9.385 17.673 0 32 14.327 32 32 0 0.009 0 0.018 0 0.027v-0.001 160h224c17.673 0 32 14.327 32 32v0 384c0 17.673-14.327 32-32 32v0zM704 288h-224c-17.673 0-32-14.327-32-32v0-114.76l-306.76 306.76 306.76 306.76v-114.76c0-17.673 14.327-32 32-32v0h224zM896 640v-384c0-17.673-14.327-32-32-32s-32 14.327-32 32v0 384c0 17.673 14.327 32 32 32s32-14.327 32-32v0z" />
<glyph unicode="&#xe996;" d="M544 64v192h-256v384h256v192l384-384z" />
<glyph unicode="&#xe997;" d="M950.64 470.64l-384 384c-5.792 5.798-13.797 9.385-22.64 9.385-17.673 0-32-14.327-32-32 0-0.009 0-0.018 0-0.027v0.001-160h-224c-17.673 0-32-14.327-32-32v0-384c0-17.673 14.327-32 32-32v0h224v-160c0-0.007 0-0.016 0-0.025 0-17.673 14.327-32 32-32 8.843 0 16.848 3.587 22.64 9.385v0l384 384c5.798 5.792 9.385 13.797 9.385 22.64s-3.587 16.848-9.385 22.64v0zM576 141.24v114.76c0 17.673-14.327 32-32 32v0h-224v320h224c17.673 0 32 14.327 32 32v0 114.76l306.76-306.76zM192 640v-384c0-17.673-14.327-32-32-32s-32 14.327-32 32v0 384c0 17.673 14.327 32 32 32s32-14.327 32-32v0z" />
<glyph unicode="&#xe998;" d="M896 416l-384-384-384 384h192v128h384v-128z" />
<glyph unicode="&#xe999;" d="M925.56 428.24c-4.934 11.696-16.306 19.757-29.56 19.76h-160v96c0 17.673-14.327 32-32 32v0h-384c-17.673 0-32-14.327-32-32v0-96h-160c-0.007 0-0.016 0-0.025 0-17.673 0-32-14.327-32-32 0-8.843 3.587-16.848 9.385-22.64v0l384-384c5.792-5.798 13.797-9.385 22.64-9.385s16.848 3.587 22.64 9.385v0l384 384c5.785 5.79 9.363 13.786 9.363 22.618 0 4.425-0.898 8.639-2.522 12.472l0.079-0.21zM512 77.24l-306.76 306.76h114.76c17.673 0 32 14.327 32 32v0 96h320v-96c0-17.673 14.327-32 32-32v0h114.76zM288 800c0 17.673 14.327 32 32 32v0h384c17.673 0 32-14.327 32-32s-14.327-32-32-32v0h-384c-17.673 0-32 14.327-32 32v0zM288 672c0 17.673 14.327 32 32 32v0h384c17.673 0 32-14.327 32-32s-14.327-32-32-32v0h-384c-17.673 0-32 14.327-32 32v0z" />
<glyph unicode="&#xe99a;" d="M608 640v-384h-128v-192l-384 384 384 384v-192z" />
<glyph unicode="&#xe99b;" d="M608 672h-96v160c0 0.007 0 0.016 0 0.025 0 17.673-14.327 32-32 32-8.843 0-16.848-3.587-22.64-9.385v0l-384-384c-5.798-5.792-9.385-13.797-9.385-22.64s3.587-16.848 9.385-22.64v0l384-384c5.792-5.798 13.797-9.385 22.64-9.385 17.673 0 32 14.327 32 32 0 0.009 0 0.018 0 0.027v-0.001 160h96c17.673 0 32 14.327 32 32v0 384c0 17.673-14.327 32-32 32v0zM576 288h-96c-17.673 0-32-14.327-32-32v0-114.76l-306.76 306.76 306.76 306.76v-114.76c0-17.673 14.327-32 32-32v0h96zM896 640v-384c0-17.673-14.327-32-32-32s-32 14.327-32 32v0 384c0 17.673 14.327 32 32 32s32-14.327 32-32v0zM768 640v-384c0-17.673-14.327-32-32-32s-32 14.327-32 32v0 384c0 17.673 14.327 32 32 32s32-14.327 32-32v0z" />
<glyph unicode="&#xe99c;" d="M544 64v192h-128v384h128v192l384-384z" />
<glyph unicode="&#xe99d;" d="M950.64 470.64l-384 384c-5.792 5.798-13.797 9.385-22.64 9.385-17.673 0-32-14.327-32-32 0-0.009 0-0.018 0-0.027v0.001-160h-96c-17.673 0-32-14.327-32-32v0-384c0-17.673 14.327-32 32-32v0h96v-160c0-0.007 0-0.016 0-0.025 0-17.673 14.327-32 32-32 8.843 0 16.848 3.587 22.64 9.385v0l384 384c5.798 5.792 9.385 13.797 9.385 22.64s-3.587 16.848-9.385 22.64v0zM576 141.24v114.76c0 17.673-14.327 32-32 32v0h-96v320h96c17.673 0 32 14.327 32 32v0 114.76l306.76-306.76zM192 640v-384c0-17.673-14.327-32-32-32s-32 14.327-32 32v0 384c0 17.673 14.327 32 32 32s32-14.327 32-32v0zM320 640v-384c0-17.673-14.327-32-32-32s-32 14.327-32 32v0 384c0 17.673 14.327 32 32 32s32-14.327 32-32v0z" />
<glyph unicode="&#xe99e;" d="M896 480h-192v-128h-384v128h-192l384 384z" />
<glyph unicode="&#xe99f;" d="M918.64 502.64l-384 384c-5.792 5.798-13.797 9.385-22.64 9.385s-16.848-3.587-22.64-9.385v0l-384-384c-5.798-5.792-9.385-13.797-9.385-22.64 0-17.673 14.327-32 32-32 0.009 0 0.018 0 0.027 0h159.999v-96c0-17.673 14.327-32 32-32v0h384c17.673 0 32 14.327 32 32v0 96h160c0.007 0 0.016 0 0.025 0 17.673 0 32 14.327 32 32 0 8.843-3.587 16.848-9.385 22.64v0zM704 512c-17.673 0-32-14.327-32-32v0-96h-320v96c0 17.673-14.327 32-32 32v0h-114.76l306.76 306.76 306.76-306.76zM736 96c0-17.673-14.327-32-32-32v0h-384c-17.673 0-32 14.327-32 32s14.327 32 32 32v0h384c17.673 0 32-14.327 32-32v0zM736 224c0-17.673-14.327-32-32-32v0h-384c-17.673 0-32 14.327-32 32s14.327 32 32 32v0h384c17.673 0 32-14.327 32-32v0z" />
<glyph unicode="&#xe9a0;" d="M896 480h-192v-256h-384v256h-192l384 384z" />
<glyph unicode="&#xe9a1;" d="M918.64 502.64l-384 384c-5.792 5.798-13.797 9.385-22.64 9.385s-16.848-3.587-22.64-9.385v0l-384-384c-5.798-5.792-9.385-13.797-9.385-22.64 0-17.673 14.327-32 32-32 0.009 0 0.018 0 0.027 0h159.999v-224c0-17.673 14.327-32 32-32v0h384c17.673 0 32 14.327 32 32v0 224h160c0.007 0 0.016 0 0.025 0 17.673 0 32 14.327 32 32 0 8.843-3.587 16.848-9.385 22.64v0zM704 512c-17.673 0-32-14.327-32-32v0-224h-320v224c0 17.673-14.327 32-32 32v0h-114.76l306.76 306.76 306.76-306.76zM736 96c0-17.673-14.327-32-32-32v0h-384c-17.673 0-32 14.327-32 32s14.327 32 32 32v0h384c17.673 0 32-14.327 32-32v0z" />
<glyph unicode="&#xe9a2;" d="M544 64v192h-352c-17.673 0-32 14.327-32 32v0 320c0 17.673 14.327 32 32 32v0h352v192l384-384z" />
<glyph unicode="&#xe9a3;" d="M950.64 470.64l-384 384c-5.792 5.798-13.797 9.385-22.64 9.385-17.673 0-32-14.327-32-32 0-0.009 0-0.018 0-0.027v0.001-160h-320c-35.346 0-64-28.654-64-64v0-320c0-35.346 28.654-64 64-64v0h320v-160c0-0.007 0-0.016 0-0.025 0-17.673 14.327-32 32-32 8.843 0 16.848 3.587 22.64 9.385v0l384 384c5.798 5.792 9.385 13.797 9.385 22.64s-3.587 16.848-9.385 22.64v0zM576 141.24v114.76c0 17.673-14.327 32-32 32v0h-352v320h352c17.673 0 32 14.327 32 32v0 114.76l306.76-306.76z" />
<glyph unicode="&#xe9a4;" d="M896 480h-192v-352c0-17.673-14.327-32-32-32v0h-320c-17.673 0-32 14.327-32 32v0 352h-192l384 384z" />
<glyph unicode="&#xe9a5;" d="M918.64 502.64l-384 384c-5.792 5.798-13.797 9.385-22.64 9.385s-16.848-3.587-22.64-9.385v0l-384-384c-5.798-5.792-9.385-13.797-9.385-22.64 0-17.673 14.327-32 32-32 0.009 0 0.018 0 0.027 0h159.999v-320c0-35.346 28.654-64 64-64v0h320c35.346 0 64 28.654 64 64v0 320h160c0.007 0 0.016 0 0.025 0 17.673 0 32 14.327 32 32 0 8.843-3.587 16.848-9.385 22.64v0zM704 512c-17.673 0-32-14.327-32-32v0-352h-320v352c0 17.673-14.327 32-32 32v0h-114.76l306.76 306.76 306.76-306.76z" />
<glyph unicode="&#xe9a6;" d="M448 736v-576l-288 288z" />
<glyph unicode="&#xe9a7;" d="M864 480h-384v256c0 0.007 0 0.016 0 0.025 0 17.673-14.327 32-32 32-8.843 0-16.848-3.587-22.64-9.385v0l-288-288c-5.798-5.792-9.385-13.797-9.385-22.64s3.587-16.848 9.385-22.64v0l288-288c5.792-5.798 13.797-9.385 22.64-9.385 17.673 0 32 14.327 32 32 0 0.009 0 0.018 0 0.027v-0.001 256h384c17.673 0 32 14.327 32 32s-14.327 32-32 32v0zM416 237.24l-210.76 210.76 210.76 210.76z" />
<glyph unicode="&#xe9a8;" d="M800 512l-288-288-288 288z" />
<glyph unicode="&#xe9a9;" d="M489.36 201.36c5.792-5.798 13.797-9.385 22.64-9.385s16.848 3.587 22.64 9.385v0l288 288c5.798 5.792 9.385 13.797 9.385 22.64 0 17.673-14.327 32-32 32-0.009 0-0.018 0-0.027 0h-255.999v288c0 17.673-14.327 32-32 32s-32-14.327-32-32v0-288h-256c-0.007 0-0.016 0-0.025 0-17.673 0-32-14.327-32-32 0-8.843 3.587-16.848 9.385-22.64v0zM722.76 480l-210.76-210.76-210.76 210.76zM896 96c0-17.673-14.327-32-32-32v0h-704c-17.673 0-32 14.327-32 32s14.327 32 32 32v0h704c17.673 0 32-14.327 32-32v0z" />
<glyph unicode="&#xe9aa;" d="M640 160h-384v384z" />
<glyph unicode="&#xe9ab;" d="M896 800c0-17.673-14.327-32-32-32v0h-704c-17.673 0-32 14.327-32 32s14.327 32 32 32v0h704c17.673 0 32-14.327 32-32v0zM726.64 630.64c5.798-5.792 9.385-13.797 9.385-22.64s-3.587-16.848-9.385-22.64v0l-233.4-233.36 169.4-169.36c5.798-5.792 9.385-13.797 9.385-22.64 0-17.673-14.327-32-32-32-0.009 0-0.018 0-0.027 0h-383.999c-17.673 0-32 14.327-32 32v0 384c0 0.007 0 0.016 0 0.025 0 17.673 14.327 32 32 32 8.843 0 16.848-3.587 22.64-9.385v0l169.36-169.4 233.36 233.4c5.792 5.798 13.797 9.385 22.64 9.385s16.848-3.587 22.64-9.385v0zM562.76 192l-274.76 274.76v-274.76z" />
<glyph unicode="&#xe9ac;" d="M768 544v-384h-384l384 384z" />
<glyph unicode="&#xe9ad;" d="M896 800c0-17.673-14.327-32-32-32v0h-704c-17.673 0-32 14.327-32 32s14.327 32 32 32v0h704c17.673 0 32-14.327 32-32v0zM800 544v-384c0-17.673-14.327-32-32-32v0h-384c-0.007 0-0.016 0-0.025 0-17.673 0-32 14.327-32 32 0 8.843 3.587 16.848 9.385 22.64v0l169.4 169.36-233.4 233.36c-5.794 5.794-9.378 13.799-9.378 22.64 0 17.683 14.335 32.018 32.018 32.018 8.841 0 16.846-3.584 22.64-9.378l233.36-233.4 169.36 169.4c5.792 5.798 13.797 9.385 22.64 9.385 17.673 0 32-14.327 32-32 0-0.009 0-0.018 0-0.027v0.001zM736 466.76l-274.76-274.76h274.76z" />
<glyph unicode="&#xe9ae;" d="M576 736v-576l-288 288z" />
<glyph unicode="&#xe9af;" d="M896 480h-288v256c0 0.007 0 0.016 0 0.025 0 17.673-14.327 32-32 32-8.843 0-16.848-3.587-22.64-9.385v0l-288-288c-5.798-5.792-9.385-13.797-9.385-22.64s3.587-16.848 9.385-22.64v0l288-288c5.792-5.798 13.797-9.385 22.64-9.385 17.673 0 32 14.327 32 32 0 0.009 0 0.018 0 0.027v-0.001 256h288c17.673 0 32 14.327 32 32s-14.327 32-32 32v0zM544 237.24l-210.76 210.76 210.76 210.76zM192 800v-704c0-17.673-14.327-32-32-32s-32 14.327-32 32v0 704c0 17.673 14.327 32 32 32s32-14.327 32-32v0z" />
<glyph unicode="&#xe9b0;" d="M736 448l-288-288v576z" />
<glyph unicode="&#xe9b1;" d="M470.64 758.64c-5.792 5.798-13.797 9.385-22.64 9.385-17.673 0-32-14.327-32-32 0-0.009 0-0.018 0-0.027v0.001-256h-288c-17.673 0-32-14.327-32-32s14.327-32 32-32v0h288v-256c0-0.007 0-0.016 0-0.025 0-17.673 14.327-32 32-32 8.843 0 16.848 3.587 22.64 9.385v0l288 288c5.798 5.792 9.385 13.797 9.385 22.64s-3.587 16.848-9.385 22.64v0zM480 237.24v421.52l210.76-210.76zM896 800v-704c0-17.673-14.327-32-32-32s-32 14.327-32 32v0 704c0 17.673 14.327 32 32 32s32-14.327 32-32v0z" />
<glyph unicode="&#xe9b2;" d="M800 384h-576l288 288z" />
<glyph unicode="&#xe9b3;" d="M534.64 694.64c-5.792 5.798-13.797 9.385-22.64 9.385s-16.848-3.587-22.64-9.385v0l-288-288c-5.798-5.792-9.385-13.797-9.385-22.64 0-17.673 14.327-32 32-32 0.009 0 0.018 0 0.027 0h255.999v-288c0-17.673 14.327-32 32-32s32 14.327 32 32v0 288h256c0.007 0 0.016 0 0.025 0 17.673 0 32 14.327 32 32 0 8.843-3.587 16.848-9.385 22.64v0zM301.24 416l210.76 210.76 210.76-210.76zM896 800c0-17.673-14.327-32-32-32v0h-704c-17.673 0-32 14.327-32 32s14.327 32 32 32v0h704c17.673 0 32-14.327 32-32v0z" />
<glyph unicode="&#xe9b4;" d="M640 736l-384-384v384z" />
<glyph unicode="&#xe9b5;" d="M896 96c0-17.673-14.327-32-32-32v0h-704c-17.673 0-32 14.327-32 32s14.327 32 32 32v0h704c17.673 0 32-14.327 32-32v0zM224 352v384c0 17.673 14.327 32 32 32v0h384c0.007 0 0.016 0 0.025 0 17.673 0 32-14.327 32-32 0-8.843-3.587-16.848-9.385-22.64v0l-169.4-169.36 233.4-233.36c5.794-5.794 9.378-13.799 9.378-22.64 0-17.683-14.335-32.018-32.018-32.018-8.841 0-16.846 3.584-22.64 9.378l-233.36 233.4-169.36-169.4c-5.792-5.798-13.797-9.385-22.64-9.385-17.673 0-32 14.327-32 32 0 0.009 0 0.018 0 0.027v-0.001zM288 429.24l274.76 274.76h-274.76z" />
<glyph unicode="&#xe9b6;" d="M768 736v-384l-384 384z" />
<glyph unicode="&#xe9b7;" d="M896 96c0-17.673-14.327-32-32-32v0h-704c-17.673 0-32 14.327-32 32s14.327 32 32 32v0h704c17.673 0 32-14.327 32-32v0zM297.36 265.36c-5.798 5.792-9.385 13.797-9.385 22.64s3.587 16.848 9.385 22.64v0l233.4 233.36-169.4 169.36c-5.798 5.792-9.385 13.797-9.385 22.64 0 17.673 14.327 32 32 32 0.009 0 0.018 0 0.027 0h383.999c17.673 0 32-14.327 32-32v0-384c0-0.007 0-0.016 0-0.025 0-17.673-14.327-32-32-32-8.843 0-16.848 3.587-22.64 9.385v0l-169.36 169.4-233.36-233.4c-5.792-5.798-13.797-9.385-22.64-9.385s-16.848 3.587-22.64 9.385v0zM461.24 704l274.76-274.76v274.76z" />
<glyph unicode="&#xe9b8;" d="M864 448l-288-288v576z" />
<glyph unicode="&#xe9b9;" d="M886.64 470.64l-288 288c-5.792 5.798-13.797 9.385-22.64 9.385-17.673 0-32-14.327-32-32 0-0.009 0-0.018 0-0.027v0.001-256h-384c-17.673 0-32-14.327-32-32s14.327-32 32-32v0h384v-256c0-0.007 0-0.016 0-0.025 0-17.673 14.327-32 32-32 8.843 0 16.848 3.587 22.64 9.385v0l288 288c5.798 5.792 9.385 13.797 9.385 22.64s-3.587 16.848-9.385 22.64v0zM608 237.24v421.52l210.76-210.76z" />
<glyph unicode="&#xe9ba;" d="M864 768v-192h-192zM160 128l192 192h-192z" />
<glyph unicode="&#xe9bb;" d="M876.24 797.56c-3.623 1.545-7.838 2.443-12.262 2.443-8.832 0-16.828-3.578-22.618-9.363v0l-64.24-64.28c-80.6 69.24-171.68 105.64-265.12 105.64-171.28 0-274.32-101.080-278.64-105.36-5.794-5.794-9.378-13.799-9.378-22.64 0-17.683 14.335-32.018 32.018-32.018 8.841 0 16.846 3.584 22.64 9.378v0c0.84 0.88 88.28 86.64 233.36 86.64 92.68 0 167.68-43.4 219.68-87.040l-82.32-82.32c-5.798-5.792-9.385-13.797-9.385-22.64 0-17.673 14.327-32 32-32 0.009 0 0.018 0 0.027 0h191.999c17.673 0 32 14.327 32 32v0 192c-0.003 13.254-8.064 24.626-19.55 29.481l-0.21 0.079zM832 608h-82.76l82.76 82.76zM745.36 214.64c-0.84-0.88-88.28-86.64-233.36-86.64-92.68 0-167.68 43.4-219.68 87.040l82.32 82.32c5.798 5.792 9.385 13.797 9.385 22.64 0 17.673-14.327 32-32 32-0.009 0-0.018 0-0.027 0h-191.999c-17.673 0-32-14.327-32-32v0-192c0-0.007 0-0.016 0-0.025 0-17.673 14.327-32 32-32 8.843 0 16.848 3.587 22.64 9.385l64.24 64.28c80.6-69.24 171.68-105.64 265.12-105.64 171.28 0 274.32 101.080 278.64 105.36 5.794 5.794 9.378 13.799 9.378 22.64 0 17.683-14.335 32.018-32.018 32.018-8.841 0-16.846-3.584-22.64-9.378v0zM192 288h82.76l-82.76-82.76z" />
<glyph unicode="&#xe9bc;" d="M160 768l192-192h-192zM672 320l192-192v192z" />
<glyph unicode="&#xe9bd;" d="M381.56 563.76c1.545 3.623 2.443 7.838 2.443 12.262 0 8.832-3.578 16.828-9.363 22.618l-82.32 82.32c52 43.64 127 87.040 219.68 87.040 143.8 0 232.52-85.76 233.44-86.72 5.79-5.77 13.778-9.338 22.6-9.338 17.683 0 32.018 14.335 32.018 32.018 0 8.861-3.6 16.882-9.417 22.679l-0.001 0.001c-4.32 4.28-107.36 105.36-278.64 105.36-93.44 0-184.52-36.4-265.12-105.64l-64.24 64.28c-5.792 5.798-13.797 9.385-22.64 9.385-17.673 0-32-14.327-32-32 0-0.009 0-0.018 0-0.027v0.001-192c0-17.673 14.327-32 32-32v0h192c13.254 0.003 24.626 8.064 29.481 19.55l0.079 0.21zM192 608v82.76l82.76-82.76zM864 352h-192c-0.007 0-0.016 0-0.025 0-17.673 0-32-14.327-32-32 0-8.843 3.587-16.848 9.385-22.64v0l82.32-82.32c-52-43.64-127-87.040-219.68-87.040-143.36 0-232 85.28-233.44 86.68-5.789 5.774-13.777 9.344-22.6 9.344-17.675 0-32.004-14.329-32.004-32.004 0-8.852 3.594-16.866 9.403-22.659l0.001-0.001c4.32-4.28 107.36-105.36 278.64-105.36 93.44 0 184.52 36.4 265.12 105.64l64.24-64.28c5.792-5.798 13.797-9.385 22.64-9.385 17.673 0 32 14.327 32 32 0 0.009 0 0.018 0 0.027v-0.001 192c0 17.673-14.327 32-32 32v0zM832 205.24l-82.76 82.76h82.76z" />
<glyph unicode="&#xe9be;" d="M832 640h-256l128 128zM320 128l128 128h-256z" />
<glyph unicode="&#xe9bf;" d="M448 288h-96v480c0 17.673-14.327 32-32 32s-32-14.327-32-32v0-480h-96c-0.007 0-0.016 0-0.025 0-17.673 0-32-14.327-32-32 0-8.843 3.587-16.848 9.385-22.64v0l128-128c5.792-5.798 13.797-9.385 22.64-9.385s16.848 3.587 22.64 9.385v0l128 128c5.798 5.792 9.385 13.797 9.385 22.64 0 17.673-14.327 32-32 32-0.009 0-0.018 0-0.027 0h0.001zM320 173.24l-50.76 50.76h101.52zM854.64 662.64l-128 128c-5.792 5.798-13.797 9.385-22.64 9.385s-16.848-3.587-22.64-9.385v0l-128-128c-5.798-5.792-9.385-13.797-9.385-22.64 0-17.673 14.327-32 32-32 0.009 0 0.018 0 0.027 0h95.999v-480c0-17.673 14.327-32 32-32s32 14.327 32 32v0 480h96c0.007 0 0.016 0 0.025 0 17.673 0 32 14.327 32 32 0 8.843-3.587 16.848-9.385 22.64v0zM653.24 672l50.76 50.76 50.76-50.76z" />
<glyph unicode="&#xe9c0;" d="M96 448l128 128v-256zM800 576v-256l128 128z" />
<glyph unicode="&#xe9c1;" d="M950.64 470.64l-128 128c-5.792 5.798-13.797 9.385-22.64 9.385-17.673 0-32-14.327-32-32 0-0.009 0-0.018 0-0.027v0.001-96h-512v96c0 0.007 0 0.016 0 0.025 0 17.673-14.327 32-32 32-8.843 0-16.848-3.587-22.64-9.385v0l-128-128c-5.798-5.792-9.385-13.797-9.385-22.64s3.587-16.848 9.385-22.64v0l128-128c5.792-5.798 13.797-9.385 22.64-9.385 17.673 0 32 14.327 32 32 0 0.009 0 0.018 0 0.027v-0.001 96h512v-96c0-0.007 0-0.016 0-0.025 0-17.673 14.327-32 32-32 8.843 0 16.848 3.587 22.64 9.385v0l128 128c5.798 5.792 9.385 13.797 9.385 22.64s-3.587 16.848-9.385 22.64v0zM192 397.24l-50.76 50.76 50.76 50.76zM832 397.24v101.52l50.76-50.76z" />
<glyph unicode="&#xe9c2;" d="M512 576l-128 128h256zM384 192h256l-128 128zM640 448l128-128v256zM256 576v-256l128 128z" />
<glyph unicode="&#xe9c3;" d="M489.36 553.36c5.792-5.798 13.797-9.385 22.64-9.385s16.848 3.587 22.64 9.385v0l128 128c5.798 5.792 9.385 13.797 9.385 22.64 0 17.673-14.327 32-32 32-0.009 0-0.018 0-0.027 0h-95.999v128c0 17.673-14.327 32-32 32s-32-14.327-32-32v0-128h-96c-0.007 0-0.016 0-0.025 0-17.673 0-32-14.327-32-32 0-8.843 3.587-16.848 9.385-22.64v0zM562.76 672l-50.76-50.76-50.76 50.76zM534.76 342.64c-5.792 5.798-13.797 9.385-22.64 9.385s-16.848-3.587-22.64-9.385v0l-128-128c-5.798-5.792-9.385-13.797-9.385-22.64 0-17.64 14.273-31.946 31.9-32h96.005v-128c0-17.673 14.327-32 32-32s32 14.327 32 32v0 128h96c0.007 0 0.016 0 0.025 0 17.673 0 32 14.327 32 32 0 8.843-3.587 16.848-9.385 22.64v0zM461.24 224l50.76 50.76 50.76-50.76zM928 480h-128v96c0 0.007 0 0.016 0 0.025 0 17.673-14.327 32-32 32-8.843 0-16.848-3.587-22.64-9.385v0l-128-128c-5.798-5.792-9.385-13.797-9.385-22.64s3.587-16.848 9.385-22.64v0l128-128c5.792-5.798 13.797-9.385 22.64-9.385 17.673 0 32 14.327 32 32 0 0.009 0 0.018 0 0.027v-0.001 96h128c17.673 0 32 14.327 32 32s-14.327 32-32 32v0zM736 397.24l-50.76 50.76 50.76 50.76zM406.64 470.64l-128 128c-5.792 5.798-13.797 9.385-22.64 9.385-17.673 0-32-14.327-32-32 0-0.009 0-0.018 0-0.027v0.001-96h-128c-17.673 0-32-14.327-32-32s14.327-32 32-32v0h128v-96c0-0.007 0-0.016 0-0.025 0-17.673 14.327-32 32-32 8.843 0 16.848 3.587 22.64 9.385v0l128 128c5.798 5.792 9.385 13.797 9.385 22.64s-3.587 16.848-9.385 22.64v0zM288 397.24v101.52l50.76-50.76z" />
<glyph unicode="&#xe9c4;" d="M768 544h-160v160zM416 192v160h-160zM608 192l160 160h-160zM416 544v160l-160-160z" />
<glyph unicode="&#xe9c5;" d="M608 512h160c0.007 0 0.016 0 0.025 0 17.673 0 32 14.327 32 32 0 8.843-3.587 16.848-9.385 22.64l-57.4 57.36 121.4 121.36c5.794 5.794 9.378 13.799 9.378 22.64 0 17.683-14.335 32.018-32.018 32.018-8.841 0-16.846-3.584-22.64-9.378v0l-121.36-121.4-57.36 57.4c-5.792 5.798-13.797 9.385-22.64 9.385-17.673 0-32-14.327-32-32 0-0.009 0-0.018 0-0.027v0.001-160c0-17.673 14.327-32 32-32v0zM640 626.76l50.76-50.76h-50.76zM416 384h-160c-0.007 0-0.016 0-0.025 0-17.673 0-32-14.327-32-32 0-8.843 3.587-16.848 9.385-22.64l57.4-57.36-121.4-121.36c-5.794-5.794-9.378-13.799-9.378-22.64 0-17.683 14.335-32.018 32.018-32.018 8.841 0 16.846 3.584 22.64 9.378v0l121.36 121.4 57.36-57.4c5.792-5.798 13.797-9.385 22.64-9.385 17.673 0 32 14.327 32 32 0 0.009 0 0.018 0 0.027v-0.001 160c0 17.673-14.327 32-32 32v0zM384 269.24l-50.76 50.76h50.76zM733.24 272l57.4 57.36c5.798 5.792 9.385 13.797 9.385 22.64 0 17.673-14.327 32-32 32-0.009 0-0.018 0-0.027 0h-159.999c-17.673 0-32-14.327-32-32v0-160c0-0.007 0-0.016 0-0.025 0-17.673 14.327-32 32-32 8.843 0 16.848 3.587 22.64 9.385l57.36 57.4 121.36-121.4c5.794-5.794 13.799-9.378 22.64-9.378 17.683 0 32.018 14.335 32.018 32.018 0 8.841-3.584 16.846-9.378 22.64v0zM640 269.24v50.76h50.76zM428.24 733.56c-3.623 1.545-7.838 2.443-12.262 2.443-8.832 0-16.828-3.578-22.618-9.363v0l-57.36-57.4-121.36 121.4c-5.794 5.794-13.799 9.378-22.64 9.378-17.683 0-32.018-14.335-32.018-32.018 0-8.841 3.584-16.846 9.378-22.64l121.4-121.36-57.4-57.36c-5.798-5.792-9.385-13.797-9.385-22.64 0-17.673 14.327-32 32-32 0.009 0 0.018 0 0.027 0h159.999c17.673 0 32 14.327 32 32v0 160c-0.003 13.254-8.064 24.626-19.55 29.481l-0.21 0.079zM384 576h-50.76l50.76 50.76z" />
<glyph unicode="&#xe9c6;" d="M256 576l128-128-128-128zM640 448l128-128v256z" />
<glyph unicode="&#xe9c7;" d="M544 800v-704c0-17.673-14.327-32-32-32s-32 14.327-32 32v0 704c0 17.673 14.327 32 32 32s32-14.327 32-32v0zM406.64 470.64c5.798-5.792 9.385-13.797 9.385-22.64s-3.587-16.848-9.385-22.64v0l-128-128c-5.792-5.798-13.797-9.385-22.64-9.385-17.673 0-32 14.327-32 32 0 0.009 0 0.018 0 0.027v-0.001 96h-160c-17.673 0-32 14.327-32 32s14.327 32 32 32v0h160v96c0 0.007 0 0.016 0 0.025 0 17.673 14.327 32 32 32 8.843 0 16.848-3.587 22.64-9.385v0zM338.64 448l-50.64 50.76v-101.52zM992 448c0-17.673-14.327-32-32-32v0h-160v-96c0-0.007 0-0.016 0-0.025 0-17.673-14.327-32-32-32-8.843 0-16.848 3.587-22.64 9.385v0l-128 128c-5.798 5.792-9.385 13.797-9.385 22.64s3.587 16.848 9.385 22.64v0l128 128c5.792 5.798 13.797 9.385 22.64 9.385 17.673 0 32-14.327 32-32 0-0.009 0-0.018 0-0.027v0.001-96h160c17.673 0 32-14.327 32-32v0zM736 498.76l-50.76-50.76 50.76-50.76z" />
<glyph unicode="&#xe9c8;" d="M512 576l-128 128h256zM384 192h256l-128 128z" />
<glyph unicode="&#xe9c9;" d="M896 448c0-17.673-14.327-32-32-32v0h-704c-17.673 0-32 14.327-32 32s14.327 32 32 32v0h704c17.673 0 32-14.327 32-32v0zM361.36 681.36c-5.798 5.792-9.385 13.797-9.385 22.64 0 17.673 14.327 32 32 32 0.009 0 0.018 0 0.027 0h95.999v160c0 17.673 14.327 32 32 32s32-14.327 32-32v0-160h96c0.007 0 0.016 0 0.025 0 17.673 0 32-14.327 32-32 0-8.843-3.587-16.848-9.385-22.64v0l-128-128c-5.792-5.798-13.797-9.385-22.64-9.385s-16.848 3.587-22.64 9.385v0zM461.36 672l50.64-50.76 50.76 50.76zM662.76 214.64c5.799-5.792 9.386-13.797 9.386-22.64 0-17.673-14.327-32-32-32-0.051 0-0.102 0-0.153 0h-95.992v-160c0-17.673-14.327-32-32-32s-32 14.327-32 32v0 160h-96c-0.007 0-0.016 0-0.025 0-17.673 0-32 14.327-32 32 0 8.843 3.587 16.848 9.385 22.64v0l128 128c5.792 5.798 13.797 9.385 22.64 9.385s16.848-3.587 22.64-9.385v0zM562.76 224l-50.76 50.76-50.76-50.76z" />
<glyph unicode="&#xe9ca;" d="M768 512h-192v192zM448 192v192h-192z" />
<glyph unicode="&#xe9cb;" d="M854.64 790.64c-5.792 5.798-13.797 9.385-22.64 9.385s-16.848-3.587-22.64-9.385l-137.36-137.4-73.36 73.4c-5.792 5.798-13.797 9.385-22.64 9.385-17.673 0-32-14.327-32-32 0-0.009 0-0.018 0-0.027v0.001-192c0-17.673 14.327-32 32-32v0h192c0.007 0 0.016 0 0.025 0 17.673 0 32 14.327 32 32 0 8.843-3.587 16.848-9.385 22.64l-73.4 73.36 137.4 137.36c5.798 5.792 9.385 13.797 9.385 22.64s-3.587 16.848-9.385 22.64v0zM608 544v82.76l82.76-82.76zM448 416h-192c-0.007 0-0.016 0-0.025 0-17.673 0-32-14.327-32-32 0-8.843 3.587-16.848 9.385-22.64l73.4-73.36-137.4-137.36c-5.794-5.794-9.378-13.799-9.378-22.64 0-17.683 14.335-32.018 32.018-32.018 8.841 0 16.846 3.584 22.64 9.378v0l137.36 137.4 73.36-73.4c5.792-5.798 13.797-9.385 22.64-9.385 17.673 0 32 14.327 32 32 0 0.009 0 0.018 0 0.027v-0.001 192c0 17.673-14.327 32-32 32v0zM416 269.24l-82.76 82.76h82.76z" />
<glyph unicode="&#xe9cc;" d="M832 256l-128-128v256zM320 512v256l-128-128z" />
<glyph unicode="&#xe9cd;" d="M854.64 278.64l-128 128c-5.792 5.798-13.797 9.385-22.64 9.385-17.673 0-32-14.327-32-32 0-0.009 0-0.018 0-0.027v0.001-96h-480c-17.673 0-32-14.327-32-32s14.327-32 32-32v0h480v-96c0-0.007 0-0.016 0-0.025 0-17.673 14.327-32 32-32 8.843 0 16.848 3.587 22.64 9.385v0l128 128c5.798 5.792 9.385 13.797 9.385 22.64s-3.587 16.848-9.385 22.64v0zM736 205.24v101.52l50.76-50.76zM297.36 489.24c5.792-5.799 13.797-9.386 22.64-9.386 17.673 0 32 14.327 32 32 0 0.051 0 0.102 0 0.153v-0.008 96h480c17.673 0 32 14.327 32 32s-14.327 32-32 32v0h-480v96c0 0.007 0 0.016 0 0.025 0 17.673-14.327 32-32 32-8.843 0-16.848-3.587-22.64-9.385v0l-128-128c-5.798-5.792-9.385-13.797-9.385-22.64s3.587-16.848 9.385-22.64v0zM288 690.76v-101.52l-50.76 50.76z" />
<glyph unicode="&#xe9ce;" d="M640 160l-128-128-128 128z" />
<glyph unicode="&#xe9cf;" d="M736 832c-17.673 0-32-14.327-32-32v0-242.76l-192-192-192 192v242.76c0 17.673-14.327 32-32 32s-32-14.327-32-32v0-256c0-0.007 0-0.016 0-0.025 0-8.83 3.577-16.825 9.36-22.615v0l214.64-214.6v-114.76h-96c-0.007 0-0.016 0-0.025 0-17.673 0-32-14.327-32-32 0-8.843 3.587-16.848 9.385-22.64v0l128-128c5.792-5.798 13.797-9.385 22.64-9.385s16.848 3.587 22.64 9.385v0l128 128c5.798 5.792 9.385 13.797 9.385 22.64 0 17.673-14.327 32-32 32-0.009 0-0.018 0-0.027 0h-95.999v114.76l214.64 214.6c5.783 5.79 9.36 13.785 9.36 22.615 0 0.009 0 0.018 0 0.027v-0.001 256c0 17.673-14.327 32-32 32v0zM512 77.24l-50.76 50.76h101.52z" />
<glyph unicode="&#xe9d0;" d="M512 864l128-128h-256zM512 32l128 128h-256zM800 576v-256l128 128zM96 448l128-128v256z" />
<glyph unicode="&#xe9d1;" d="M384 704h96v-128c0-17.673 14.327-32 32-32s32 14.327 32 32v0 128h96c0.007 0 0.016 0 0.025 0 17.673 0 32 14.327 32 32 0 8.843-3.587 16.848-9.385 22.64v0l-128 128c-5.792 5.798-13.797 9.385-22.64 9.385s-16.848-3.587-22.64-9.385v0l-128-128c-5.798-5.792-9.385-13.797-9.385-22.64 0-17.673 14.327-32 32-32 0.009 0 0.018 0 0.027 0h-0.001zM512 818.76l50.76-50.76h-101.52zM640 192h-96v128c0 17.673-14.327 32-32 32s-32-14.327-32-32v0-128h-96c-0.007 0-0.016 0-0.025 0-17.673 0-32-14.327-32-32 0-8.843 3.587-16.848 9.385-22.64v0l128-128c5.792-5.798 13.797-9.385 22.64-9.385s16.848 3.587 22.64 9.385v0l128 128c5.798 5.792 9.385 13.797 9.385 22.64 0 17.673-14.327 32-32 32-0.009 0-0.018 0-0.027 0h0.001zM512 77.24l-50.76 50.76h101.52zM950.64 470.64l-128 128c-5.792 5.798-13.797 9.385-22.64 9.385-17.673 0-32-14.327-32-32 0-0.009 0-0.018 0-0.027v0.001-96h-128c-17.673 0-32-14.327-32-32s14.327-32 32-32v0h128v-96c0-0.007 0-0.016 0-0.025 0-17.673 14.327-32 32-32 8.843 0 16.848 3.587 22.64 9.385v0l128 128c5.798 5.792 9.385 13.797 9.385 22.64s-3.587 16.848-9.385 22.64v0zM832 397.24v101.52l50.76-50.76zM384 416c17.673 0 32 14.327 32 32s-14.327 32-32 32v0h-128v96c0 0.007 0 0.016 0 0.025 0 17.673-14.327 32-32 32-8.843 0-16.848-3.587-22.64-9.385v0l-128-128c-5.798-5.792-9.385-13.797-9.385-22.64s3.587-16.848 9.385-22.64v0l128-128c5.792-5.798 13.797-9.385 22.64-9.385 17.673 0 32 14.327 32 32 0 0.009 0 0.018 0 0.027v-0.001 96zM192 397.24l-50.76 50.76 50.76 50.76z" />
<glyph unicode="&#xe9d2;" d="M832 768v-192l-192 192zM192 128h192l-192 192zM832 128v192l-192-192zM192 576l192 192h-192z" />
<glyph unicode="&#xe9d3;" d="M393.36 374.64l-105.36-105.4-73.36 73.4c-5.792 5.798-13.797 9.385-22.64 9.385-17.673 0-32-14.327-32-32 0-0.009 0-0.018 0-0.027v0.001-192c0-17.673 14.327-32 32-32v0h192c0.007 0 0.016 0 0.025 0 17.673 0 32 14.327 32 32 0 8.843-3.587 16.848-9.385 22.64l-73.4 73.36 105.4 105.36c5.794 5.794 9.378 13.799 9.378 22.64 0 17.683-14.335 32.018-32.018 32.018-8.841 0-16.846-3.584-22.64-9.378v0zM224 160v82.76l82.76-82.76zM333.24 672l73.4 73.36c5.798 5.792 9.385 13.797 9.385 22.64 0 17.673-14.327 32-32 32-0.009 0-0.018 0-0.027 0h-191.999c-17.673 0-32-14.327-32-32v0-192c0-0.007 0-0.016 0-0.025 0-17.673 14.327-32 32-32 8.843 0 16.848 3.587 22.64 9.385l73.36 73.4 105.36-105.4c5.794-5.794 13.799-9.378 22.64-9.378 17.683 0 32.018 14.335 32.018 32.018 0 8.841-3.584 16.846-9.378 22.64v0zM224 653.24v82.76h82.76zM832 800h-192c-0.007 0-0.016 0-0.025 0-17.673 0-32-14.327-32-32 0-8.843 3.587-16.848 9.385-22.64l73.4-73.36-105.4-105.36c-5.794-5.794-9.378-13.799-9.378-22.64 0-17.683 14.335-32.018 32.018-32.018 8.841 0 16.846 3.584 22.64 9.378l105.36 105.4 73.36-73.4c5.792-5.798 13.797-9.385 22.64-9.385 17.673 0 32 14.327 32 32 0 0.009 0 0.018 0 0.027v-0.001 192c0 17.673-14.327 32-32 32v0zM800 653.24l-82.76 82.76h82.76zM844.24 349.56c-3.623 1.545-7.838 2.443-12.262 2.443-8.832 0-16.828-3.578-22.618-9.363v0l-73.36-73.4-105.36 105.4c-5.794 5.794-13.799 9.378-22.64 9.378-17.683 0-32.018-14.335-32.018-32.018 0-8.841 3.584-16.846 9.378-22.64l105.4-105.36-73.4-73.36c-5.798-5.792-9.385-13.797-9.385-22.64 0-17.673 14.327-32 32-32 0.009 0 0.018 0 0.027 0h191.999c17.673 0 32 14.327 32 32v0 192c-0.003 13.254-8.064 24.626-19.55 29.481l-0.21 0.079zM800 160h-82.76l82.76 82.76z" />
<glyph unicode="&#xe9d4;" d="M64 448l128 128v-256zM832 576v-256l128 128z" />
<glyph unicode="&#xe9d5;" d="M544 800v-704c0-17.673-14.327-32-32-32s-32 14.327-32 32v0 704c0 17.673 14.327 32 32 32s32-14.327 32-32v0zM416 448c0-17.673-14.327-32-32-32v0h-160v-96c0-0.007 0-0.016 0-0.025 0-17.673-14.327-32-32-32-8.843 0-16.848 3.587-22.64 9.385v0l-128 128c-5.798 5.792-9.385 13.797-9.385 22.64s3.587 16.848 9.385 22.64v0l128 128c5.792 5.798 13.797 9.385 22.64 9.385 17.673 0 32-14.327 32-32 0-0.009 0-0.018 0-0.027v0.001-96h160c17.673 0 32-14.327 32-32v0zM160 498.76l-50.76-50.76 50.76-50.76zM982.64 425.36l-128-128c-5.792-5.798-13.797-9.385-22.64-9.385-17.673 0-32 14.327-32 32 0 0.009 0 0.018 0 0.027v-0.001 96h-160c-17.673 0-32 14.327-32 32s14.327 32 32 32v0h160v96c0 0.007 0 0.016 0 0.025 0 17.673 14.327 32 32 32 8.843 0 16.848-3.587 22.64-9.385v0l128-128c5.798-5.792 9.385-13.797 9.385-22.64s-3.587-16.848-9.385-22.64v0zM914.64 448l-50.64 50.76v-101.52z" />
<glyph unicode="&#xe9d6;" d="M640 768h-256l128 128zM512 0l128 128h-256z" />
<glyph unicode="&#xe9d7;" d="M896 448c0-17.673-14.327-32-32-32v0h-704c-17.673 0-32 14.327-32 32s14.327 32 32 32v0h704c17.673 0 32-14.327 32-32v0zM354.44 755.76c-1.545 3.623-2.443 7.838-2.443 12.262 0 8.832 3.578 16.828 9.363 22.618l128 128c5.792 5.798 13.797 9.385 22.64 9.385s16.848-3.587 22.64-9.385v0l128-128c5.798-5.792 9.385-13.797 9.385-22.64 0-17.673-14.327-32-32-32-0.009 0-0.018 0-0.027 0h-95.999v-160c0-17.673-14.327-32-32-32s-32 14.327-32 32v0 160h-96c-13.254 0.003-24.626 8.064-29.481 19.55l-0.079 0.21zM461.24 800h101.52l-50.76 50.76zM669.56 140.24c1.545-3.623 2.443-7.838 2.443-12.262 0-8.832-3.578-16.828-9.363-22.618l-128-128c-5.792-5.798-13.797-9.385-22.64-9.385s-16.848 3.587-22.64 9.385v0l-128 128c-5.798 5.792-9.385 13.797-9.385 22.64 0 17.673 14.327 32 32 32 0.009 0 0.018 0 0.027 0h95.999v160c0 17.673 14.327 32 32 32s32-14.327 32-32v0-160h96c13.254-0.003 24.626-8.064 29.481-19.55l0.079-0.21zM562.76 96h-101.52l50.76-50.76z" />
<glyph unicode="&#xe9d8;" d="M832 768v-192l-192 192zM192 128h192l-192 192z" />
<glyph unicode="&#xe9d9;" d="M832 800h-192c-0.007 0-0.016 0-0.025 0-17.673 0-32-14.327-32-32 0-8.843 3.587-16.848 9.385-22.64l73.4-73.36-137.4-137.36c-5.794-5.794-9.378-13.799-9.378-22.64 0-17.683 14.335-32.018 32.018-32.018 8.841 0 16.846 3.584 22.64 9.378l137.36 137.4 73.36-73.4c5.792-5.798 13.797-9.385 22.64-9.385 17.673 0 32 14.327 32 32 0 0.009 0 0.018 0 0.027v-0.001 192c0 17.673-14.327 32-32 32v0zM800 653.24l-82.76 82.76h82.76zM425.36 406.64l-137.36-137.4-73.36 73.4c-5.792 5.798-13.797 9.385-22.64 9.385-17.673 0-32-14.327-32-32 0-0.009 0-0.018 0-0.027v0.001-192c0-17.673 14.327-32 32-32v0h192c0.007 0 0.016 0 0.025 0 17.673 0 32 14.327 32 32 0 8.843-3.587 16.848-9.385 22.64l-73.4 73.36 137.4 137.36c5.794 5.794 9.378 13.799 9.378 22.64 0 17.683-14.335 32.018-32.018 32.018-8.841 0-16.846-3.584-22.64-9.378v0zM224 160v82.76l82.76-82.76z" />
<glyph unicode="&#xe9da;" d="M864 768v-640c0-17.673-14.327-32-32-32v0h-640c-17.673 0-32 14.327-32 32v0 640c0 17.673 14.327 32 32 32v0h640c17.673 0 32-14.327 32-32v0z" />
<glyph unicode="&#xe9db;" d="M832 832h-640c-35.346 0-64-28.654-64-64v0-640c0-35.346 28.654-64 64-64v0h640c35.346 0 64 28.654 64 64v0 640c0 35.346-28.654 64-64 64v0zM832 128h-640v640h640v-640zM662.64 438.64c5.798-5.792 9.385-13.797 9.385-22.64s-3.587-16.848-9.385-22.64v0l-128-128c-5.792-5.798-13.797-9.385-22.64-9.385s-16.848 3.587-22.64 9.385v0l-128 128c-5.794 5.794-9.378 13.799-9.378 22.64 0 17.683 14.335 32.018 32.018 32.018 8.841 0 16.846-3.584 22.64-9.378l73.36-73.4v242.76c0 17.673 14.327 32 32 32s32-14.327 32-32v0-242.76l73.36 73.4c5.792 5.798 13.797 9.385 22.64 9.385s16.848-3.587 22.64-9.385v0z" />
<glyph unicode="&#xe9dc;" d="M864 768v-640c0-17.673-14.327-32-32-32v0h-640c-17.673 0-32 14.327-32 32v0 640c0 17.673 14.327 32 32 32v0h640c17.673 0 32-14.327 32-32v0z" />
<glyph unicode="&#xe9dd;" d="M832 832h-640c-35.346 0-64-28.654-64-64v0-640c0-35.346 28.654-64 64-64v0h640c35.346 0 64 28.654 64 64v0 640c0 35.346-28.654 64-64 64v0zM832 128h-640v640h640zM352 320v192c0 17.673 14.327 32 32 32s32-14.327 32-32v0-114.76l201.36 201.4c5.794 5.794 13.799 9.378 22.64 9.378 17.683 0 32.018-14.335 32.018-32.018 0-8.841-3.584-16.846-9.378-22.64l-201.4-201.36h114.76c17.673 0 32-14.327 32-32s-14.327-32-32-32v0h-192c-17.673 0-32 14.327-32 32v0z" />
<glyph unicode="&#xe9de;" d="M864 768v-640c0-17.673-14.327-32-32-32v0h-640c-17.673 0-32 14.327-32 32v0 640c0 17.673 14.327 32 32 32v0h640c17.673 0 32-14.327 32-32v0z" />
<glyph unicode="&#xe9df;" d="M832 832h-640c-35.346 0-64-28.654-64-64v0-640c0-35.346 28.654-64 64-64v0h640c35.346 0 64 28.654 64 64v0 640c0 35.346-28.654 64-64 64v0zM832 128h-640v640h640zM361.36 553.36c-5.794 5.794-9.378 13.799-9.378 22.64 0 17.683 14.335 32.018 32.018 32.018 8.841 0 16.846-3.584 22.64-9.378l201.36-201.4v114.76c0 17.673 14.327 32 32 32s32-14.327 32-32v0-192c0-17.673-14.327-32-32-32v0h-192c-17.673 0-32 14.327-32 32s14.327 32 32 32v0h114.76z" />
<glyph unicode="&#xe9e0;" d="M864 768v-512c0-17.673-14.327-32-32-32v0h-512c-17.673 0-32 14.327-32 32v0 512c0 17.673 14.327 32 32 32v0h512c17.673 0 32-14.327 32-32v0z" />
<glyph unicode="&#xe9e1;" d="M512 416v-256c0-17.673-14.327-32-32-32s-32 14.327-32 32v0 178.72l-265.36-265.36c-5.794-5.794-13.799-9.378-22.64-9.378-17.683 0-32.018 14.335-32.018 32.018 0 8.841 3.584 16.846 9.378 22.64v0l265.36 265.36h-178.72c-17.673 0-32 14.327-32 32s14.327 32 32 32v0h256c17.673 0 32-14.327 32-32v0zM832 832h-512c-35.346 0-64-28.654-64-64v0-192c0-17.673 14.327-32 32-32s32 14.327 32 32v0 192h512v-512h-192c-17.673 0-32-14.327-32-32s14.327-32 32-32v0h192c35.346 0 64 28.654 64 64v0 512c0 35.346-28.654 64-64 64v0z" />
<glyph unicode="&#xe9e2;" d="M864 768v-640c0-17.673-14.327-32-32-32v0h-640c-17.673 0-32 14.327-32 32v0 640c0 17.673 14.327 32 32 32v0h640c17.673 0 32-14.327 32-32v0z" />
<glyph unicode="&#xe9e3;" d="M832 832h-640c-35.346 0-64-28.654-64-64v0-640c0-35.346 28.654-64 64-64v0h640c35.346 0 64 28.654 64 64v0 640c0 35.346-28.654 64-64 64v0zM832 128h-640v640h640zM329.36 425.36c-5.798 5.792-9.385 13.797-9.385 22.64s3.587 16.848 9.385 22.64v0l128 128c5.794 5.794 13.799 9.378 22.64 9.378 17.683 0 32.018-14.335 32.018-32.018 0-8.841-3.584-16.846-9.378-22.64l-73.4-73.36h242.76c17.673 0 32-14.327 32-32s-14.327-32-32-32v0h-242.76l73.4-73.36c5.794-5.794 9.378-13.799 9.378-22.64 0-17.683-14.335-32.018-32.018-32.018-8.841 0-16.846 3.584-22.64 9.378v0z" />
</font>
</defs>
</svg>
